<?xml version="1.0" standalone="no"?>
<!DOCTYPE svg PUBLIC "-//W3C//DTD SVG 1.1//EN" "http://www.w3.org/Graphics/SVG/1.1/DTD/svg11.dtd" >
<svg xmlns="http://www.w3.org/2000/svg">
<metadata>
This is a custom SVG webfont generated by Font Squirrel.
Copyright   :  Copyright 1997 Hallmark Cards Inc All rights reserved This font is authorized for use by official Hallmark Cards licensees only and may not be copied or distributed 
</metadata>
<defs>
<font id="webfontQPsjytpP" horiz-adv-x="940" >
<font-face units-per-em="2048" ascent="1638" descent="-410" />
<missing-glyph horiz-adv-x="518" />
<glyph unicode=" "  horiz-adv-x="518" />
<glyph unicode="&#x09;" horiz-adv-x="518" />
<glyph unicode="&#xa0;" horiz-adv-x="518" />
<glyph unicode="!" horiz-adv-x="585" d="M475 1622q4 -55 -10 -145l-76 -473q-20 -137 -47 -439q16 -29 35 -94q8 -119 -66 -123q-63 -2 -78 70q-14 59 -10 145q8 193 47 461l76 469q0 12 -6 55q-4 33 -4 54q0 113 59 116q76 6 80 -96zM397 63q0 -39 -26.5 -65.5t-65.5 -26.5t-66.5 26t-27.5 64q0 39 26.5 67 t65.5 28t66.5 -27t27.5 -66z" />
<glyph unicode="&#x22;" horiz-adv-x="548" d="M485 1503q10 -39 -16 -121q-2 -63 -12 -192q8 -47 4 -72q-4 -55 -58 -55q-55 0 -53 53q2 61 12 219q8 135 9 158q0 57 57 57q45 0 57 -47zM240 1503q10 -39 -17 -121q-2 -63 -12 -192q8 -47 6 -72q-6 -55 -59 -55t-52 53q2 61 11 219q8 135 8 158q0 57 57 57q46 0 58 -47 z" />
<glyph unicode="#" horiz-adv-x="1386" d="M1323 926q0 -57 -66 -58q-41 0 -104 13q-49 -2 -145 -2l-125 -381q39 0 116 4q55 2 99 2q70 0 69 -58q0 -55 -65 -55q-41 0 -103 12l-145 -6q-27 -78 -59 -202q2 -16 2 -37q0 -68 -37 -154q-29 -70 -74 -70q-57 0 -39 99l49 188q14 53 54 176q-92 0 -277 -4l-59 -198 q4 -16 4 -37q0 -68 -37 -154q-31 -70 -74 -70q-57 0 -39 99q2 4 49 188l50 170q-41 -2 -129 -4q-61 -20 -103 -20q-61 0 -61 57q0 51 57 57q14 0 107 4q123 4 159 4q72 233 121 377q-41 0 -125 -4q-61 -18 -104 -18q-59 0 -60 55q0 51 58 57q14 0 106 5q123 4 158 4l80 245 q16 53 47 142q23 51 57 51q10 0 23 -4q47 -16 37 -78q-10 -49 -72 -147l-66 -205q193 4 273 4l80 237q16 53 47 142q23 51 57 51q10 0 23 -4q47 -16 37 -78q-10 -49 -72 -147l-62 -199l113 4q57 4 100 4q70 0 70 -57zM899 877l-272 -9l-123 -376l276 6z" />
<glyph unicode="$" horiz-adv-x="1200" d="M1071 299q-193 -182 -430 -268q0 -25 -6 -66q16 -43 10 -82q-8 -59 -61 -59q-66 0 -60 67q8 63 11 109q-47 -10 -93 -10q-121 0 -196.5 68.5t-75.5 189.5t76 227q20 31 55 31q70 0 70 -82q0 -76 -78 -127q-8 -27 -8 -51q0 -61 38.5 -98t100.5 -37q45 0 115 18 q12 117 45 543l-338 18q-190 14 -191 127q0 61 62 125q141 143 313 238q96 51 199 88q4 35 6 63q-23 88 -2 142q16 41 61 40q61 0 58 -71q-4 -43 -11 -137q78 23 156 22q172 0 172 -119q0 -70 -74 -69q-37 0 -56 23.5t-30 45.5q-45 6 -104 -12l-72 -22l-37 -392 q164 -20 250 -41q248 -59 248 -215q0 -112 -123 -227zM618 1133q-66 -23 -133 -60q-158 -82 -282 -213q-10 -10 -10 -20q0 -27 59 -33l340 -19q10 122 26 345zM991 389q63 59 64 119q0 84 -137 117q-70 16 -228 39q-12 -166 -41 -500q186 73 342 225z" />
<glyph unicode="%" horiz-adv-x="1527" d="M1417 559q-6 -154 -92 -344q-102 -233 -229 -242q-113 -6 -160 148q-41 131 -35 278q14 240 123 357q61 66 190 63q217 -2 203 -260zM1176 1339q-14 -102 -271 -532l-393 -666q-43 -143 -65.5 -170.5t-53.5 -27.5q-51 0 -51 51q0 63 305 586q362 621 373 643 q18 94 40.5 139t59.5 45q25 0 42.5 -19.5t13.5 -48.5zM688 1120q-8 -152 -92 -342q-104 -233 -231 -241q-113 -6 -160 145q-41 131 -33 281q12 268 125 356q84 66 188 63q215 -2 203 -262zM1319 563q8 154 -105 158q-10 0 -40 -4q-31 -57 -78 -70h-29q-55 -88 -66 -252 q-8 -121 33 -243q25 -80 56 -78q55 2 106 108q117 238 123 381zM588 1126q8 154 -103 158q-12 0 -43 -6q-31 -55 -77 -68h-29q-55 -88 -66 -252q-6 -121 33 -245q27 -78 57 -78q55 2 107 108q115 240 121 383z" />
<glyph unicode="&#x26;" horiz-adv-x="1206" d="M1135 1077q-18 -57 -74 -57q-49 0 -66 59q-6 23 -2 51q-80 23 -260 -14q-8 -106 -39 -397q45 2 135 8q88 33 129 33q25 0 46 -8q39 -14 38 -54q0 -55 -73 -67q-49 -6 -111 -6q-27 -12 -178 -70l-23 -276q70 14 174 53q98 76 156 76q59 0 60 -62q0 -39 -37 -57 q-172 -82 -361 -125q0 -10 -2 -32.5t-4 -33.5q12 -39 6 -75q-6 -53 -51 -54q-53 0 -51 54q4 41 8 124q-152 -18 -252 -12q-219 8 -219 125q0 47 37 101.5t90 89.5q127 78 307 155q-154 -4 -299 25q-186 39 -196 160q-4 66 59 141q55 70 123 104q217 111 440 170l8 76 q-16 47 -8 104t62 58q53 0 47 -64l-15 -155q182 35 291 6q113 -29 113 -113q0 -21 -8 -41zM635 1094q-193 -55 -383 -152q-129 -66 -125 -143q2 -41 111 -64q139 -29 362 -24q19 178 35 383zM584 518q-188 -76 -316 -158q-31 -20 -57.5 -49.5t-22.5 -42.5q14 -27 121 -30 q115 -4 254 16z" />
<glyph unicode="'" horiz-adv-x="313" d="M223 1503q10 -39 -16 -121q-2 -63 -12 -192q8 -47 6 -72q-6 -55 -60 -55q-53 0 -51 53q2 61 10 219q8 135 9 158q0 57 57 57q45 0 57 -47z" />
<glyph unicode="(" horiz-adv-x="708" d="M694 1753q-37 -53 -119 -111q-373 -487 -370 -948q2 -340 207 -643q109 -72 135 -127q14 -31 14 -57q0 -66 -59 -66q-27 0 -47 23q-358 397 -361 870q-2 334 176 678q127 246 326 463q20 23 45 23t44.5 -23t19.5 -49q-1 -19 -11 -33z" />
<glyph unicode=")" horiz-adv-x="712" d="M625 946q0 -590 -439 -1108q-25 -29 -59 -28q-57 0 -57 59q0 16 6 37q18 57 135 147q303 428 303 893q0 422 -246 748l-53 37q-29 20 -42 41.5t-13 44.5q0 29 20.5 47t46.5 18q25 0 41 -16q357 -381 357 -920z" />
<glyph unicode="*" horiz-adv-x="964" d="M864 1225q-49 -41 -112 -49q-74 -37 -183 -78l277 -129q45 -27 45 -68q0 -31 -23.5 -52.5t-58.5 -21.5q-57 0 -133 80l-154 117q25 -252 23 -299q-4 -66 -70 -66q-63 0 -76 66q-18 111 15 154q20 92 24 145l-168 -123q-43 -49 -106 -65q-8 -2 -17 -2q-29 0 -51 22.5 t-22 50.5q0 39 41 62q100 43 282 129q-72 29 -182 80q-53 6 -102 47q-33 29 -33 65q0 29 20.5 51.5t46.5 22.5q14 0 29 -10l262 -180q-10 285 -8 307q8 66 70 65q61 0 71 -63q12 -55 -18 -129l-25 -183l252 177q20 12 41 12q29 0 49.5 -21.5t20.5 -52.5q0 -34 -27 -61z" />
<glyph unicode="+" horiz-adv-x="1038" d="M961 426q-55 -14 -125 2q-2 0 -263 -4l-6 -191q16 -16 19 -63q4 -59 -11 -125q-12 -45 -59 -45q-45 0 -55 43q-14 72 -4 209q2 20 6 172l-260 -4q-86 -29 -123 -17q-45 12 -45 62q0 61 57 63l373 9q2 152 0 260q-25 47 -25 94q0 66 66 65q49 0 61 -51q4 -14 8 -104 q2 -78 0 -262l365 8q59 0 59 -60q1 -51 -38 -61z" />
<glyph unicode="," horiz-adv-x="452" d="M238 59q-12 -29 -70 -92l-76 -170q-4 -111 -78 -110q-55 0 -55 53q0 37 31 98l84 180q43 90 53 109q29 43 57 43q12 0 27 -8q37 -16 37 -60q0 -23 -10 -43z" />
<glyph unicode="-" horiz-adv-x="788" d="M678 508q-47 -18 -127 0q-88 -2 -252 -8q-86 -29 -127 -17q-47 12 -47 62q0 63 61 63q6 0 469 19q61 2 62 -60q0 -43 -39 -59z" />
<glyph unicode="." horiz-adv-x="452" d="M164 -20q-20 0 -43 10q-41 23 -41 71q0 27 14 52q23 37 72 37q27 0 49 -13q35 -23 35 -71q0 -37 -24.5 -61.5t-61.5 -24.5z" />
<glyph unicode="/" d="M977 1513q-20 -115 -328 -632l-473 -805q-37 -178 -82 -228q-16 -16 -39 -16q-29 0 -49 21.5t-12 50.5q29 115 352 653q383 643 467 809q33 217 111 217q25 0 42 -20.5t11 -49.5z" />
<glyph unicode="0" horiz-adv-x="1220" d="M1149 1026q0 -180 -111 -451q-90 -221 -215 -411q-72 -111 -173 -176.5t-204 -65.5q-156 0 -258 168q-47 74 -82 225q-37 160 -36 308q0 209 63 393q55 156 137 252q94 106 291 155q74 18 174 19q213 0 322 -137q92 -115 92 -279zM1032 1030q0 125 -59 195 q-82 98 -238 98q-76 0 -139 -16q-57 -57 -131 -98.5t-117 -34.5q-160 -221 -160 -551q0 -133 33 -277q31 -131 66 -190q72 -115 157 -115q156 0 285 199q115 176 201 389q102 247 102 401z" />
<glyph unicode="1" horiz-adv-x="868" d="M815 115q2 -55 -63 -64q-82 -2 -250 -10q-16 -41 -31 -59q-20 -27 -55 -27q-57 0 -66 55v21q-55 -2 -121 -8q-41 -25 -88 -27q-51 -4 -90 17.5t-39 60.5q0 49 84 60t172 13q37 2 92 7l107 845q14 117 20 177q-63 -63 -110 -99q-27 -61 -45 -78q-31 -41 -66 -41 q-20 0 -37 15q-47 37 -18 94q12 23 74 84q45 45 157 141q43 37 84 37q86 0 82 -115q-4 -74 -24 -225q-33 -276 -107 -831q37 2 109 4q59 2 67 2q59 14 84 14q74 0 78 -63z" />
<glyph unicode="2" horiz-adv-x="1329" d="M1317 139q-35 -41 -92 -63q-109 -47 -248 -41q-285 12 -748 12q-59 -43 -82 -43q-72 0 -71 70q0 45 29.5 67.5t78.5 22.5q670 487 887 782q88 121 88 195q0 125 -168 125q-152 0 -334 -62q-160 -51 -266 -121q-55 -80 -86 -104q-43 -35 -84 -35q-66 0 -65 68 q0 37 37.5 74.5t134.5 97.5q125 80 288 133q195 66 371 65q106 0 184 -49q66 -43 89 -104q16 -41 16 -86q0 -119 -105 -264q-227 -315 -788 -711q336 0 596 -14q102 -6 182 20q33 51 68 76q23 14 45 14q63 0 63 -69q0 -31 -20 -56z" />
<glyph unicode="3" horiz-adv-x="1282" d="M1225 537q0 -170 -176 -301q-250 -184 -512 -265q-137 -41 -224 -41q-139 0 -204 72q-55 61 -56 135q0 45 19 80q23 45 65 45q55 0 70 -84q6 -33 -2 -100q39 -31 108 -31q66 0 187 37q221 70 477 248q129 90 129 205q0 74 -113 110q-137 47 -362 33q-147 -8 -240 -16 q-76 -43 -119 -48q-82 -8 -94 56q-10 57 53 84q27 12 131 24l224 94q240 102 332 203q61 63 61 119q0 41 -98 41q-219 0 -533 -125q-37 -51 -79 -71.5t-72 -20.5q-72 0 -72 70q0 39 35 61q49 33 129 63q360 139 581 140q227 0 228 -158q0 -100 -92 -203q-86 -94 -295 -192 q213 0 329 -43q185 -65 185 -221z" />
<glyph unicode="4" horiz-adv-x="1341" d="M1329 563q0 -63 -84 -76q-113 -16 -221 5q-12 -240 -16 -328q23 -66 22 -127q0 -100 -67 -103q-61 -4 -70 78q-6 57 -2 144q2 100 14 325l-723 -102q-68 -59 -100 -60q-78 0 -80 70q-2 90 133 105l402 356l467 422q14 59 47 92q25 25 57 25q31 0 55 -27q37 -43 4 -94 q-2 -6 -57 -62q-37 -201 -74 -590q147 16 201 17q92 0 92 -70zM969 1073l-353 -313l-270 -238q293 45 569 78q23 297 54 473z" />
<glyph unicode="5" horiz-adv-x="1261" d="M1137 819q25 -51 24 -112q0 -94 -61 -232q-47 -100 -137 -219q-98 -131 -191 -199q-190 -141 -338 -141q-160 0 -256 147q-47 76 -51 156q-2 63 18 109q25 53 70 53q66 0 72 -109q6 -68 -2 -155q59 -84 149 -84q102 0 268 121q80 57 172 180q76 102 119 190 q53 106 54 176q0 35 -13 64q-41 86 -229 86q-106 0 -264 -37q-197 -47 -273 -121l-20 -43q-25 -59 -80 -59q-66 0 -66 65q0 20 11 41q39 74 53 142.5t57 312.5h-10q-6 -2 -8 -2q-37 -37 -76 -45t-72 8q-39 18 -39 57q0 55 52 70q31 6 102 23q23 6 66 16q12 84 77 84 q53 0 62 -57q362 74 565 84q104 6 154 -27q33 -25 32 -62q0 -35 -26.5 -51t-63.5 -12q-14 2 -102 35q-205 -14 -592 -94q-29 -211 -55 -332q236 123 512 123q264 0 336 -150z" />
<glyph unicode="6" horiz-adv-x="1206" d="M1100 877q37 -55 37 -146q0 -117 -50 -223q-45 -98 -148 -223t-187 -189q-172 -131 -322 -131q-160 0 -248 129q-63 90 -63 279q0 66 8 127q-43 -10 -68 22q-14 18 -14 43q0 39 25 66q12 16 100 78q88 279 299 575q98 139 145 139q72 0 72 -71q0 -31 -20 -58 q-29 -37 -103 -84q-158 -229 -227 -391q297 168 532 168q156 1 232 -110zM1001 811q-41 57 -133 57q-94 0 -256 -55q-172 -59 -295 -143q-33 -43 -53 -64q-27 -139 -26 -246q0 -137 43 -200q51 -78 153 -78t246 111q76 59 168 170.5t135 197.5q37 78 37 168q-1 53 -19 82z " />
<glyph unicode="7" horiz-adv-x="1003" d="M1038 1382q8 -14 9 -30q0 -39 -40 -70t-92 -51q-16 -20 -55 -80q-106 -160 -217 -383q-123 -252 -235 -557q0 -150 -2 -160q-16 -70 -82 -69q-63 0 -74 84q-8 55 45 188q131 338 242.5 564t199.5 366q-106 -16 -278 -8q-12 0 -135 8q-94 6 -150 6q-35 -47 -70 -62 q-23 -8 -43 -8q-47 0 -65 33q-23 43 4 86q43 68 164 68q23 0 305 -15q256 -12 373 37q31 33 73 66q31 20 66 20q39 0 57 -33z" />
<glyph unicode="8" horiz-adv-x="1290" d="M1221 600q0 -141 -166 -299q-143 -137 -312 -227q-201 -111 -366 -111q-154 0 -256.5 90t-102.5 242q0 133 84 253t197 179q-127 55 -127 211q0 92 67.5 198.5t157.5 149.5q18 27 45 39q94 45 234 72q117 23 196 22q66 0 134 -12q80 -16 140 -78.5t60 -138.5 q0 -86 -69 -164q-80 -92 -193 -164q277 -35 277 -262zM1087 1190q0 78 -118 102q-125 27 -258 -10q-121 -72 -181 -90q-41 -12 -71 -4q-74 -39 -125 -121q-45 -74 -45 -135q0 -84 90 -105q88 -23 229 15q119 29 228 96q123 74 215 168q36 39 36 84zM1102 606q0 127 -223 144 q-127 8 -236 -25q-90 -63 -172 -84q-57 -14 -90 -6q-115 -53 -182 -160q-61 -94 -62 -178q0 -90 56 -150q66 -68 184 -67q262 0 594 307q131 121 131 219z" />
<glyph unicode="9" horiz-adv-x="1120" d="M987 983q-20 -66 -61 -227q-72 -281 -115 -549q10 -117 6 -158q-8 -92 -78 -92q-61 0 -65 72q-4 61 18 192q45 270 99 496q-106 -121 -234 -195q-133 -80 -240 -80q-127 0 -206 105q-57 74 -58 196q0 229 175 478t407 249q180 0 344 -161q41 82 98 82q29 0 47.5 -25 t18.5 -53q0 -86 -156 -330zM930 1192q-139 160 -295 160q-174 0 -309 -203q-154 -227 -154 -401q0 -84 31 -125q45 -61 114 -62q193 0 435 289q80 96 125 182q16 56 53 160z" />
<glyph unicode=":" horiz-adv-x="460" d="M289 645q41 -25 41 -70q0 -35 -24.5 -62.5t-59.5 -27.5q-25 0 -47 15q-41 25 -41 69q0 35 24.5 62.5t59.5 27.5q24 0 47 -14zM262 129q39 -25 39 -70q0 -35 -24.5 -62.5t-59.5 -27.5q-25 0 -47 15q-41 27 -41 69q0 35 25.5 62.5t60.5 27.5q22 0 47 -14z" />
<glyph unicode=";" horiz-adv-x="460" d="M299 647q41 -25 41 -69q0 -35 -25.5 -63t-60.5 -28q-25 0 -47 15q-39 27 -39 69q0 35 24.5 63t59.5 28q24 -1 47 -15zM309 78q-10 -53 -71 -113l-68 -155q-8 -61 -39 -93q-18 -23 -43 -22q-55 0 -55 57q0 12 4 25q123 276 158 344q18 31 53 31q29 0 48 -20.5t13 -53.5z " />
<glyph unicode="&#x3c;" horiz-adv-x="991" d="M881 934q-25 -20 -78 -53l-563 -351l544 -350q70 -25 103 -51q43 -35 43 -76q0 -27 -16.5 -47t-43.5 -20t-51 22q-33 29 -100 80q-8 6 -465 291q-35 23 -94 47q-20 0 -64 8q-47 20 -39 90q4 31 90 88l97 66l489 295q33 66 86 96q23 14 49 14q70 0 70 -59q0 -43 -57 -90z " />
<glyph unicode="=" horiz-adv-x="1073" d="M938 737q-51 -20 -135 0q-217 4 -514 4q-88 -29 -133 -16q-49 12 -50 63q0 63 64 68q391 16 743 4q66 -2 66 -63q0 -44 -41 -60zM938 395q-51 -20 -135 0q-217 4 -514 6q-88 -29 -133 -18q-49 12 -50 63q0 66 64 68q369 10 743 6q66 -2 66 -63q0 -44 -41 -62z" />
<glyph unicode="&#x3e;" horiz-adv-x="991" d="M936 524q8 -70 -39 -90q-10 -4 -63 -8q-20 -2 -95 -47l-266 -158q-158 -94 -252 -174q-18 -14 -44.5 -37.5t-53.5 -23.5q-25 0 -42.5 20.5t-17.5 46.5q0 41 43 76q33 27 103 51l545 350l-561 351q-137 84 -138 143q0 59 70 59q27 0 49 -14q53 -31 88 -96l488 -295l96 -66 q51 -35 53 -37q33 -26 37 -51z" />
<glyph unicode="?" horiz-adv-x="1193" d="M1151 1456q0 -104 -68 -227q-57 -104 -127 -166q-90 -80 -227 -152q-162 -82 -293 -94l-22 -330q12 -47 8 -106q-2 -27 -25.5 -48.5t-54.5 -19.5q-27 2 -44 25.5t-13 54.5q10 57 12 94q8 104 20 342q-45 18 -45 76q0 31 15 51q23 29 65 29q57 0 84 -47q100 10 238 82 q121 61 196 127q53 45 105 131q59 102 59 178t-57 125q-68 55 -195 55q-193 0 -379 -102q-25 -57 -75 -111q-43 -45 -92 -45q-61 0 -62 62q0 94 156 188q211 127 452 127q176 0 275 -88q94 -80 94 -211zM455 70q0 -37 -27 -63.5t-66 -26.5t-66.5 26.5t-27.5 63.5 q0 39 27 65.5t65 26.5q39 0 67 -26.5t28 -65.5z" />
<glyph unicode="@" horiz-adv-x="1566" d="M1505 737q-8 -213 -149 -360q-88 -92 -223 -78q-51 6 -94.5 43t-51.5 86q-16 78 -6 129q-139 -135 -241.5 -191.5t-194.5 -56.5q-86 0 -143.5 48.5t-57.5 156.5q0 25 4 49q33 246 279 418q121 86 307 86q70 0 141 -12q18 66 72 65q68 0 55 -71q-4 -25 -26 -138 q-16 -59 -46 -180q-14 -49 -30 -156q-6 -80 0 -110q10 -43 53 -51q66 -12 135 61q94 98 98 262q4 233 -98 377q-90 127 -248 168q-90 23 -186 23q-135 0 -236 -43q-422 -178 -421 -619q0 -227 97 -368.5t263 -190.5q123 -37 229 -37q100 0 185 33l119 51q86 35 122 37 q23 0 40.5 -18.5t17.5 -38.5t-30 -55.5t-50 -45.5q-27 -16 -109 -41q-20 -4 -49 6q-119 -43 -260 -43q-109 0 -211 27q-219 57 -362 250q-123 162 -123 444q0 256 149 455q133 180 348 262q133 51 289 51q111 0 207 -24q213 -57 322 -226q124 -192 114 -434zM1055 936 q-59 12 -119 12q-156 0 -264 -76q-178 -125 -207 -315q-20 -135 78 -135q57 0 151 55q172 100 322 301q16 56 39 158z" />
<glyph unicode="A" horiz-adv-x="1179" d="M1141 43q1 -8 0 -14q0 -77 -62 -90q-7 -2 -14 -2q-38 0 -57 49q-12 33 -33 118l-101 365q-217 12 -550 12q-33 -80 -136 -311l2 -26q0 -58 -30 -113q-27 -51 -82 -51q-14 0 -29 6q-35 16 -35 55q0 18 6 41l60 133l115 266q-20 0 -33 -4q-22 -17 -62 -17q-8 0 -16 1 q-74 16 -74 74q0 55 84 61q31 2 152 2l334 737q-1 7 -2 15q0 28 18 59q8 18 41 43t59 27h8q66 0 70 -68q0 -6 1 -11q0 -48 -32 -95l226 -719q6 0 51 -4q53 -4 53 -62q0 -23 -16.5 -39t-34.5 -16q-14 0 -21 2l93 -330q43 -49 47 -94zM838 588q-68 242 -189 624l-274 -614 q234 0 463 -10z" />
<glyph unicode="B" horiz-adv-x="1271" d="M1219 477q0 -166 -177 -289q-329 -234 -635 -233h-16q-18 -70 -78 -70q-53 0 -61 88q-55 14 -105 41q-119 63 -118 138q0 63 69 63q90 0 117 -104q23 -12 35 -17l31 697q-74 30 -74 85q0 66 78 76q6 178 14 310q-25 -8 -43 -19q-27 -68 -72 -90q-23 -10 -41 -10 q-27 0 -48 19.5t-21 45.5q0 72 125 140q55 31 114 47q10 98 70 100h7q65 0 71 -76q94 14 188 15q219 0 371 -21q53 -8 96 -41q55 -39 62 -100q1 -9 0 -18q0 -77 -64 -140q-172 -166 -385 -266q203 -74 328 -146q162 -92 162 -225zM995 1294q-127 23 -340 23q-119 0 -221 -23 q-4 0 -8 -4t-6 -4q-12 -117 -17 -344q86 -16 144 -33q283 86 477 283q36 36 36 60q-1 33 -65 42zM1100 477q0 66 -109 125q-174 98 -446 178q-62 -13 -121 -13q-15 0 -29 1l-28 -659q10 -14 20 -35q21 -2 42 -2q244 0 548 217q123 88 123 188z" />
<glyph unicode="C" horiz-adv-x="1243" d="M1237 432q0 -27 -27 -65q-33 -47 -75 -91q-307 -326 -582 -325q-240 0 -381 252q-78 139 -78 375q0 377 238 673q72 90 198 148q119 57 224 57q152 0 256 -84q15 6 28 6q29 0 45 -28q11 -19 12 -35q0 -25 -28 -41q1 -12 1 -23q0 -22 -5 -43q-23 -82 -76 -81q-8 0 -16 1 q-49 10 -49 93q0 37 10 63q-72 53 -180 53q-84 0 -182.5 -49t-151.5 -114q-84 -102 -139 -246q-68 -172 -68 -350q0 -205 68 -324q102 -186 274 -186q207 0 489 282q4 72 56 123q29 29 69 29q31 0 50.5 -21.5t19.5 -48.5z" />
<glyph unicode="D" horiz-adv-x="1363" d="M1356 985q0 -147 -66 -293q-35 -74 -123 -200q-76 -111 -219 -242q-209 -190 -403 -250q-90 -27 -152 -27q-31 0 -59 7q-18 -37 -59 -37q-13 0 -29 4q-44 11 -44 79q0 11 1 23q-27 20 -72 60q-68 70 -68 133q0 29 17.5 49t44.5 20q61 0 98 -90q16 127 27 455 q2 135 20 512q-6 33 -14 94q-8 -4 -31 -10q-25 -33 -73 -78q-16 -8 -35 -8q-72 0 -72 80q0 86 145 120l64 13q18 57 61 59h9q54 0 67 -51q569 0 767 -78t198 -344zM1239 985q0 182 -119 227q-193 76 -725 76l-6 -100q-10 -143 -22 -512q-4 -168 -35 -547l4 -25 q25 -14 59 -14q41 0 111 23q184 61 368 231q123 113 205 227q160 230 160 414z" />
<glyph unicode="E" horiz-adv-x="1292" d="M1227 1313q0 -76 -117 -76q-37 0 -111 20q-31 -2 -589 -61q-23 -283 -29 -426q160 16 455 49q96 12 143 12q98 0 98 -68q0 -57 -73 -71q-22 -4 -49 -4q-48 0 -107 14q-256 -29 -469 -49q-2 -190 -21 -458q229 18 664 45q49 23 90 26q9 1 18 1q81 0 80 -72q0 -51 -67 -66 q-12 -2 -109 -6l-682 -45q14 -76 15 -107q0 -43 -24 -77.5t-58 -34.5q-59 0 -64 63v14q0 40 8 132h-75q-66 0 -66 63q0 55 59 72q35 9 71 9l24 -1q8 139 20 412q-47 12 -47 59q0 53 49 70q6 195 23 401q-39 -10 -68 -12q-14 -1 -25 -1q-91 0 -92 68q0 55 84 74q27 4 90 16 q-2 47 22 84t62 37q59 0 58 -104q383 45 588 61q50 4 92 4q28 0 53 -2q76 -6 76 -65z" />
<glyph unicode="F" horiz-adv-x="1292" d="M1194 1329q0 -76 -117 -76q-45 0 -90 17q-311 -18 -541 -56l-20 -55q-14 -166 -29 -418q190 25 461 39q96 4 100 4q109 0 109 -64q0 -65 -90 -71q-13 -1 -25 -1q-49 0 -90 14q-256 -12 -471 -46l-26 -456q14 -68 14 -113t-22.5 -79t-57.5 -34q-57 0 -61 62q0 16 10 166 q16 256 22 432q-51 -25 -84 -25q-82 0 -92 49q-2 11 -2 20q0 45 49 58q14 4 140 29q6 207 32 467q-23 -4 -67 -16q-23 -12 -70 -29q-29 -6 -50 -6q-73 0 -73 58q0 50 84 75q12 4 82 18l111 25q14 66 59 67q4 0 8 1q50 0 60 -48q225 35 536 49q30 2 57 2.5t52 -2.5 q92 -4 92 -57z" />
<glyph unicode="G" horiz-adv-x="1447" d="M1460 817q0 -59 -76 -65q-8 -1 -15 -1q-29 0 -52 13l-41 2q-2 -14 -6 -39q3 -102 2 -205v-102q0 -33 -6 -184q9 -60 8 -87q0 -85 -68 -86q-55 0 -61 64q-1 3 -1 14q0 33 5 138q-379 -283 -664 -283q-201 0 -311 156q-104 145 -104 385q0 375 266 690q82 96 205 156.5 t241 60.5q121 0 285 -88q12 8 29 8q55 0 55 -57q0 -10 -2 -19q12 -24 12 -45q0 -12 -4 -22q-28 -70 -76 -71q-5 0 -10 1q-56 10 -56 69q0 12 3 27q-113 78 -232 78q-102 0 -206 -53q-96 -49 -154 -121q-238 -299 -238 -614q0 -166 58 -275q76 -150 239 -149q266 0 668 315 q3 64 3 131q0 100 -7 207q-26 1 -54 1q-125 0 -278 -15q-29 -19 -65 -19h-13q-78 6 -77 66q0 47 71 61q23 4 70 8q147 14 354 15q184 0 238 -4q65 -7 65 -62z" />
<glyph unicode="H" horiz-adv-x="1378" d="M1290 739q0 -51 -53 -67q-13 -5 -32 -5q-15 0 -34 3q-14 -274 -14 -375q23 -55 23 -125q0 -63 -21 -117q-25 -66 -69 -65q-45 0 -52 96q-2 45 -2 95.5t2 107.5q4 123 17 395q-340 -4 -725 -27q0 -59 -4 -213q-3 -91 -3 -143q0 -26 1 -43q33 -12 36 -51q2 -26 3 -51 q0 -85 -27 -156q-20 -61 -68 -61q-35 0 -47 22q-4 12 -12 57q-4 33 -4 226q0 33 2 166q4 166 4 241q-59 -4 -88 -4q-88 0 -88 60q0 63 88 67q5 0 11 1q25 0 77 -7q6 135 14 362q4 86 17 127q17 49 67 50h8q35 -2 54 -29q13 -18 12 -42q0 -10 -2 -22q-8 -45 -37 -98 q-10 -170 -14 -342q369 23 733 29q27 360 37 575q2 57 12 154q14 78 72 78q70 0 69 -105q0 -72 -34 -141q-2 -39 -39 -563h49q61 -1 61 -60z" />
<glyph unicode="I" horiz-adv-x="600" d="M555 1368q0 -41 -33 -55q-22 -15 -46 -15q-16 0 -34 7h-20q-14 -2 -23 -2l-34 -531l-48 -668q63 3 98 3q17 0 27 -1q51 -4 52 -57q0 -53 -60 -65q-18 -3 -33 -4q-23 0 -39 8h-26q-23 -2 -33 -2q-14 -27 -53 -27q-27 0 -43 16q-25 0 -35 -2q-37 -4 -68 -4q-25 0 -45 15 q-27 18 -26 43q0 45 55 65q20 8 41 8l41 -8h14q8 2 15 2l49 686l35 508q-4 0 -62 -4l-42 -6q-28 -4 -38 -4q-63 0 -67 51q-1 6 -1 11q0 52 56 63q26 6 50 5q19 0 36 -3l68 8q16 57 61 61q2 0 4 1q52 0 60 -52q70 6 90 6q57 -4 57 -57z" />
<glyph unicode="J" horiz-adv-x="1110" d="M1124 1394q0 -52 -65 -59q-47 -4 -82 -4t-125 -6q-16 -629 -39 -872q-27 -272 -108 -416q-59 -100 -160 -100q-88 0 -187 63q-231 147 -323 297q-37 61 -37 115q0 76 53 88q11 2 20 2q47 0 66 -51q8 -25 9 -56q0 -22 -5 -47q68 -113 283 -248q76 -47 123 -47q29 0 59 51 q61 104 88 363q25 217 41 854l-264 -16q-63 -39 -127 -43q-4 0 -8 -1q-48 0 -88 23q-43 25 -43 64q0 49 84 61q59 4 172 14q82 4 266 17q20 57 64 61h3q52 0 60 -57q61 0 109 4q43 14 84 14q77 1 77 -68z" />
<glyph unicode="K" horiz-adv-x="1292" d="M1184 -80q-33 0 -78 39q-63 59 -107 147l-491 549l-193 -184q-12 -119 -26 -297q0 -57 -6 -145q-10 -72 -64 -72q-68 0 -67 111q0 61 20 120l12 136q-43 -31 -75 -31q-57 0 -58 53q0 35 33 68l117 114q-1 48 -1 96q0 286 21 574q-12 119 -12 139q0 121 90 121 q57 0 57 -80q0 6 -16 -186q-18 -209 -23 -551l113 102q-25 31 -68 93q-10 19 -10 35q0 23 20 40q18 16 38 17q17 0 36 -13q27 -16 89 -77l405 372l115 109q35 29 59 29q53 0 53 -66q0 -41 -26 -74q-51 -57 -123 -88l-420 -383l487 -551l129 -141q29 -33 29 -63 q0 -23 -17 -42.5t-42 -19.5z" />
<glyph unicode="L" horiz-adv-x="1110" d="M1042 74q0 -33 -31 -51q-29 -17 -60 -17h-7q-49 4 -98 31q-47 2 -96 2q-222 0 -467 -39q-10 -6 -37 -20q-12 -49 -60 -50q-45 0 -59 39q-29 10 -29 54q0 35 27 51q6 31 18 84l35 481l31 528q2 80 10 226q6 88 64 88q68 0 75 -80q2 -20 2 -41q0 -88 -32 -201l-31 -526 l-39 -522q272 46 532 45h62q84 -2 127 -13q63 -14 63 -69z" />
<glyph unicode="M" horiz-adv-x="1583" d="M1487 10q0 -86 -55 -94q-8 -1 -16 -1q-47 0 -62 56q-10 39 -19 135q-14 150 -41 488q-12 231 -12 442q-150 -313 -367 -674q-2 -27 -20 -57q-14 -37 -61 -37q-23 -6 -46.5 11.5t-23.5 39.5q-16 27 -12 54l-228 426l-209 381q-4 -164 -22 -504q-8 -154 -31 -498 q25 -16 25 -67v-15q-8 -139 -94 -139q-58 0 -58 67q0 23 8 152q16 238 31 502q10 188 25 549q-10 31 -16 98q-3 38 -3 61q0 19 2 29q-2 29 12.5 52.5t41.5 23.5q10 2 20 2q43 0 59.5 -35t42.5 -119q174 -301 271 -485l207 -393l188 336l182 354q29 53 64 141q2 29 16 80 t62 51q16 0 32 -8q40 -13 40 -62q0 -7 -1 -14q-2 -29 -16 -67q-4 -66 -4 -158q0 -301 14 -516q14 -205 41 -475q33 -56 33 -113z" />
<glyph unicode="N" horiz-adv-x="1470" d="M1321 1292q0 -63 -27 -145q-4 -154 -8 -492v-67q0 -239 12 -512q20 -74 21 -109q4 -14 4 -26q0 -34 -35 -47q-18 -18 -45 -19q-37 0 -49 33q-31 18 -66 86q-242 217 -503 551q-178 225 -332 485q8 -158 8 -364q0 -53 -16 -471q-6 -137 -17 -205q-10 -59 -67 -60 q-33 0 -56 33q-19 28 -19 73q0 8 1 17q4 74 41 156q16 215 16 457q0 193 -16 518q-23 57 -33 125q-8 27 -8 45q0 55 59 55q12 8 27 8q47 0 57 -69q27 -53 39 -117q170 -297 412 -617q219 -289 457 -508q-10 354 -11 549l11 504q0 49 4 123q6 117 61 117q39 0 62 -39 q16 -31 16 -68z" />
<glyph unicode="O" horiz-adv-x="1447" d="M1427 965q0 -266 -206 -537q-158 -207 -379 -352q-203 -133 -328 -133q-162 0 -291 194.5t-129 480.5q0 244 105 453q82 168 145 215q28 21 58 21q17 0 34 -7q6 0 25 -2h24q246 162 461 162q221 0 342 -129q139 -147 139 -366zM1309 965q0 178 -113 290q-86 86 -248 86 q-188 0 -401 -147q-80 -53 -223 -174q-12 -12 -27 -14q-86 -184 -86 -390q0 -244 117 -417q90 -137 186 -138q76 0 258 113q205 127 358 330q179 240 179 461z" />
<glyph unicode="P" horiz-adv-x="1257" d="M1278 1157q0 -133 -113 -280q-217 -285 -559 -418q-141 -53 -276 -53q-12 -254 -13 -326q23 -39 23 -98q0 -96 -72 -97q-53 0 -63 78q-4 37 -4 111q0 115 10 346q-70 20 -119 74q-23 25 -22 57q0 33 26.5 50t59.5 7q31 -10 63 -53q14 203 76 713q-2 8 -2 49 q-33 -10 -47 -12q-55 -49 -81 -55.5t-46 -6.5q-63 0 -74 55q-1 5 -1 11q0 38 52 67q55 27 115 43q150 41 369 41q139 0 297 -20q182 -25 264 -62q137 -65 137 -221zM1161 1159q0 82 -74 113q-158 66 -507 69q-23 1 -44 1q-63 0 -110 -5q-10 -55 -14 -84q-59 -436 -76 -731 q106 4 227 49q301 117 514 381q84 105 84 207z" />
<glyph unicode="Q" horiz-adv-x="1441" d="M1419 979q0 -313 -305 -643q4 -4 162 -246q37 -37 49 -70q6 -21 6 -36q0 -30 -22 -45t-41 -15q-23 0 -41 23q-14 20 -47 71l-154 234q-98 -88 -184 -154q-92 -68 -150 -92q-86 -39 -188 -39q-166 0 -279 168q-131 197 -131 483q0 244 117 482q68 135 133 184q29 21 63 21 q15 0 31 -5q47 0 68 -6q246 154 448 154q219 0 332 -119q133 -143 133 -350zM1303 979q0 166 -109 274q-78 78 -238 78q-186 0 -391 -141q-139 -98 -200 -154q-18 -18 -56 -10q-98 -209 -98 -410q0 -244 117 -417q74 -115 176 -115q109 0 268 115q96 68 191 153 q-14 23 -44 66t-71 114q-13 21 -13 40q0 25 25 44q16 14 33 15q23 0 47 -23q39 -37 80 -125q8 -14 27 -43q256 279 256 539z" />
<glyph unicode="R" horiz-adv-x="1257" d="M1253 1143q0 -123 -104 -264q-176 -240 -436 -373q252 -293 372 -422l89 -102q20 -25 20 -54q0 -57 -64 -57q-41 0 -71 33q-39 41 -60 98l-397 453q-117 -53 -221 -54q-20 0 -39 2q-6 -199 -6 -292q23 -39 22 -99q0 -96 -71 -96q-53 0 -64 78q-4 37 -4 110q0 190 4 326 q-47 18 -102 74q-39 39 -39 82q0 18 12 30q18 25 43 25q18 0 48 -12.5t46 -48.5q10 336 45 659q2 25 7 68q-29 -6 -58 -17q-27 -33 -71 -53q-23 -6 -43 -6q-76 0 -76 67q0 35 49 64q63 35 111 47q172 45 385 45q131 0 274 -22q174 -27 262 -72q137 -72 137 -217zM1135 1145 q0 84 -97 121q-180 66 -458 69q-14 0 -29 1q-58 0 -125 -7l-33 -106q-35 -303 -45 -703q13 -1 27 -1q71 0 145 28q4 -2 2 0q-14 27 -14 49q0 53 61 53q43 0 78 -47q231 117 410 352q78 103 78 191z" />
<glyph unicode="S" horiz-adv-x="1236" d="M1182 520q0 -164 -197 -338q-307 -272 -551 -272q-145 0 -213 104q-53 82 -53 185q0 41 8 94q14 88 62 162q25 37 59 37q74 0 74 -82q0 -53 -82 -156q-4 -20 -4 -45q0 -72 34.5 -126t114.5 -54q197 0 467 237q164 141 164 254q0 96 -166 142q-137 39 -338 51l-309 16 q-76 6 -127 45q-59 43 -59 111q0 61 67 145l96 100q72 80 209 164q127 78 242 119q147 53 211 53q29 0 53 -6q76 -18 109 -65q16 -25 16 -60q0 -37 -18 -51q-23 -20 -49 -20q-20 0 -41 12q-31 18 -52 72h-7q-48 0 -179 -48q-113 -41 -231 -112q-131 -78 -181 -139l-78 -80 q-49 -51 -49 -84q0 -29 87 -35t294 -19q258 -18 383 -57q234 -76 234 -254z" />
<glyph unicode="T" horiz-adv-x="1222" d="M1219 1360q0 -29 -28 -47.5t-54 -18.5q-74 0 -103 23q-74 -2 -344 -25q0 -49 -2 -102q-35 -821 -35 -1053q43 -55 43 -110q0 -47 -24.5 -76t-57.5 -29q-49 0 -65 60q-14 51 -14 143q0 285 34 1063q-6 33 -10 88q-205 -25 -360 -53q-74 -41 -109 -41q-66 0 -78 55 q-2 8 -2 16q0 40 64 64q20 8 104 23.5t377 54.5q18 49 74 53h7q37 0 52 -37q217 18 352 23h26q57 0 100 -8q53 -9 53 -66z" />
<glyph unicode="U" horiz-adv-x="1398" d="M1274 1286q0 -123 -39 -309q-4 -90 -8 -268q-3 -88 -3 -204q0 -154 5 -358q31 -55 33 -90q1 -10 0 -19q0 -76 -62 -83h-7q-77 0 -81 182q-7 261 -6 416v72q-121 -250 -397 -512q-162 -154 -285 -154q-78 0 -140.5 67.5t-88.5 163.5q-47 182 -48 419v38q4 174 35 518 q8 113 19.5 177.5t64.5 64.5q33 0 55 -31q20 -28 19 -63q0 -64 -43 -164q-27 -272 -31 -500v-41q0 -235 43 -377q47 -154 113 -153q76 0 205 121q279 260 407 549q51 117 80 239l12 266q6 111 82 111q66 0 66 -78z" />
<glyph unicode="V" horiz-adv-x="1286" d="M1255 1448q20 -25 21 -51q0 -55 -100 -113q-156 -244 -306 -557q-109 -229 -208 -522q7 -33 6 -64q0 -43 -13 -83q-23 -69 -80 -72q-5 0 -9 -1q-54 0 -62 44q-12 25 -17 47q-11 38 -11 94q0 16 1 33l-162 502q-109 307 -161 430q-86 53 -86 110q0 35 22.5 60.5t54.5 25.5 q37 0 64 -45q20 -35 47 -96q94 -217 172 -449q76 -219 141 -436q90 258 199 479q193 393 295 541q4 39 33 51q47 59 75 78q24 15 44 15q23 0 40 -21z" />
<glyph unicode="W" horiz-adv-x="1779" d="M1786 1395q-16 -45 -62 -97q-117 -311 -213 -639q-45 -150 -135 -524q6 -37 6 -71t-6 -66q6 -33 -10 -57.5t-51 -22.5q-10 -4 -21 -4q-59 0 -63 66q-14 29 -14 80q0 33 6 75q-55 211 -170 578q-76 244 -131 399l-195 -448q-57 -141 -203 -547q5 -25 6 -59q0 -17 -2 -35 q-6 -25 -14 -39q-4 -51 -57 -52q-63 0 -82 64q-4 14 -4 37q0 37 10 98q-98 469 -264 1028l-37 131q0 29 20.5 48.5t49.5 19.5q51 0 71 -58q13 -34 13 -84q0 -13 -1 -26l119 -416q45 -160 115 -463q61 178 158 408l217 502q0 68 8 92q33 82 92 82q66 0 74 -82q1 -15 1 -30 q0 -37 -7 -71q70 -193 161 -471q27 -82 121 -422q25 102 105 371q133 442 215 656q18 51 43 98q33 61 67 61q10 0 23 -4q45 -18 45 -78q0 -16 -4 -28z" />
<glyph unicode="X" horiz-adv-x="1144" d="M1122 1446q0 -70 -114 -123q-158 -199 -406 -596l369 -604q55 -25 80 -60q16 -25 16 -53q0 -49 -29 -69q-16 -14 -34 -15q-29 0 -52 27q-45 51 -71 92q-215 334 -349 571l-333 -542q-27 -41 -60 -99q-16 -27 -53 -26q-18 0 -37 8q-29 18 -29 55q0 59 80 131l367 594 l-217 422q-59 68 -82 123q-16 37 -16 61q0 41 36 64q14 8 29 8q41 0 72 -63l63 -138q61 -127 185 -362q242 377 389 557q47 55 92 88q16 14 39 14q65 1 65 -65z" />
<glyph unicode="Y" horiz-adv-x="1208" d="M1247 1430q0 -31 -28 -58q-37 -29 -101 -88q-297 -305 -506 -666q3 -41 3 -74q0 -17 -1 -32l-14 -324q15 -70 15 -124q0 -12 -1 -23q-6 -102 -73 -102q-63 0 -64 94q0 45 6 129q-14 29 0 61q4 117 15 291v57q2 0 -5.5 18.5t-7.5 26.5l-385 635q-23 14 -30 47l-41 68 q-12 23 -13 41q0 27 27 47q20 14 41 14q33 0 63.5 -35.5t42.5 -101.5l359 -588q201 334 483 621q27 53 78 98q29 27 72 27q31 0 48 -18t17 -41z" />
<glyph unicode="Z" horiz-adv-x="1265" d="M1272 1464q25 -10 24 -45q0 -55 -57 -73q-20 -14 -76 -43q-274 -262 -608 -697l-340 -465q-6 2 -4 -2q473 53 907 54q84 0 126 -29q30 -21 30 -50q0 -11 -4 -24q-20 -55 -74 -55q-53 0 -94 41q-514 -8 -887 -53q-66 -31 -100 -35q-22 -16 -44 -17l-38 13q-18 12 -21 41 q-1 7 -1 12q0 18 9 33l80 120l432 580q252 326 474 545q-421 -49 -607 -49q-33 0 -59 2q-82 -25 -129 -25q-53 0 -90 28.5t-37 69.5q0 66 63 66q27 0 77 -10.5t73 -12.5q33 12 53 0q18 -1 41 0q178 0 668 56q57 25 131 37q20 10 38 9q26 0 44 -22z" />
<glyph unicode="[" horiz-adv-x="612" d="M563 1722q0 -41 -33 -55q-37 -23 -77 -6q-6 0 -56 -2h-57q-10 -342 -37 -887q-16 -362 -47 -954q133 8 184 4q49 -6 49 -55q0 -51 -59 -64q-18 -4 -63 -2q-49 0 -62 6h-29q-23 -2 -32 -2q-14 -25 -54 -24q-61 0 -59 36q20 389 59 1063l35 981q16 57 60 60q53 2 61 -49 q102 8 160 4q57 -5 57 -54z" />
<glyph unicode="\" d="M977 -96q6 -29 -13.5 -50.5t-48.5 -21.5q-25 0 -41 16q-45 49 -81 228q-16 33 -474 805q-305 518 -327 632q-4 29 12 49.5t43 20.5q76 0 111 -217q82 -166 467 -809q321 -538 352 -653z" />
<glyph unicode="]" horiz-adv-x="612" d="M471 1796q-14 -397 -43 -1001q-16 -244 -47 -975q6 -115 -12 -115q-14 -27 -54 -27q-25 0 -41 17q-53 0 -36 0q-29 0 -35 -2q-39 -4 -68 -4q-23 0 -46 15t-23 40q0 43 53 63q41 16 82 0h31h34q14 354 49 996l35 864q-6 0 -63 -4l-42 -6q-28 -4 -38 -4q-61 0 -66 49 q-4 59 56 72q47 8 84 2l69 6q16 57 68 49q29 -6 35 -8q16 -9 18 -27z" />
<glyph unicode="^" horiz-adv-x="1140" d="M1055 653q14 -25 14 -51q0 -68 -59 -67q-59 0 -144 136l-309 490l-303 -473q-25 -70 -53 -104q-33 -43 -76 -43q-25 0 -45.5 17t-20.5 42q0 29 23 53q29 33 80 99l246 395q23 37 47 96q0 20 8 62q18 47 90 38q29 -4 88 -90q25 -35 64 -96l253 -418q66 -33 97 -86z" />
<glyph unicode="_" horiz-adv-x="1177" d="M1196 -301h-1208q-51 0 -51 49t51 49h1204q51 0 51 -45q0 -53 -47 -53z" />
<glyph unicode="`" horiz-adv-x="579" d="M471 1317q20 -16 21 -39q0 -23 -17.5 -41t-42.5 -18q-31 0 -82 57q-8 8 -143 113q-88 35 -117 67q-18 18 -18 41q0 27 18.5 44.5t42.5 17.5q18 0 35 -9z" />
<glyph unicode="a" horiz-adv-x="995" d="M899 391q0 -18 -31 -61q-2 -27 -14 -162q14 -53 14 -98q0 -94 -67 -95q-29 0 -49 19q-25 21 -25 52q0 18 10 126q-256 -248 -477 -248q-78 0 -129 41q-70 55 -70 168v19q12 219 199 356q172 123 399 123q57 0 113 -8q3 63 3 110q0 115 -17 148q-10 14 -33 14 q-90 0 -291 -131q-74 -94 -121 -94q-76 0 -76 67q0 36 33 60q27 16 78 51q16 23 41 26q227 137 352 138q57 0 97.5 -42t46.5 -100q6 -53 6 -135q0 -118 -12 -295q20 -12 20 -49zM766 504q-53 8 -107 8q-145 0 -266 -59q-199 -100 -215 -308v-14q0 -51 27 -74q18 -18 55 -18 q115 0 277 121q137 100 217 213q8 80 12 131z" />
<glyph unicode="b" horiz-adv-x="1067" d="M1018 567q-61 -213 -264 -411q-223 -215 -435 -215q-102 0 -151 71q-80 15 -80 124v16q6 137 86 286q39 307 105 989q-10 35 -25 113q-1 14 -1 27q0 90 64 94h3q69 0 77 -105q3 -22 3 -50q0 -38 -5 -87q-20 -240 -76 -778q158 174 410 289q66 29 125 28q94 0 142 -62 t48 -159q1 -76 -26 -170zM854 842q-35 0 -78 -21q-156 -70 -289 -183.5t-198 -229.5q-10 -82 -35 -316q12 -33 61 -33q172 0 363 191q176 176 223 350q27 92 27 145q0 97 -74 97z" />
<glyph unicode="c" d="M895 367q-4 -33 -45 -82q-111 -137 -195 -203q-131 -100 -266 -100q-127 0 -209 86t-82 243q0 197 123 447q57 119 145.5 186.5t174.5 67.5q106 0 172 -70q18 18 43 19q59 0 59 -58q0 -12 -5 -25.5t-3 -62.5q1 -11 1 -20q0 -84 -65 -84q-86 0 -86 100q0 12 -4 18 q-47 66 -112 66q-123 0 -215 -190q-109 -223 -109 -394q0 -213 172 -213q174 0 365 254q4 20 20 70q18 37 60 37q31 0 48 -30q14 -24 14 -50q0 -6 -1 -12z" />
<glyph unicode="d" horiz-adv-x="1003" d="M983 1726q-4 -53 -12 -141q-23 -211 -66 -696q25 -31 25 -64q0 -35 -33 -53l-12 -280q-2 -44 -2 -95q0 -101 8 -225q27 -61 27 -115q0 -68 -56 -71q-5 0 -9 -1q-59 0 -69 50q-8 47 -12 108q-10 23 -10 40q0 15 8 26q-5 91 -5 164q0 36 1 67q-152 -268 -328 -391 q-78 -53 -149 -53q-66 0 -117 41q-72 59 -72 162q4 393 185 637q147 201 340 200q86 0 170 -49q4 55 57 604q-13 44 -13 91q0 28 5 57q10 70 71 70q3 0 7 -1q27 -2 44 -26.5t17 -55.5zM776 805q-49 47 -67 94q-33 18 -84 19q-129 0 -244 -152q-162 -221 -162 -567 q0 -84 70 -84q35 0 84 37q207 154 313 380q47 105 90 273z" />
<glyph unicode="e" horiz-adv-x="1058" d="M1010 367q-10 -29 -84 -99q-72 -115 -185 -190q-123 -82 -243 -82q-166 0 -262 125q-81 105 -81 244q0 16 1 32q-47 -12 -66 -16q-7 -1 -13 -1q-48 0 -48 56q0 37 24 64q37 35 125 45q51 209 180 347t267 138q180 0 270 -180q23 -43 51 -121q8 -33 8 -63q0 -76 -55 -76 q-10 0 -20 2l-115 -23q-221 -41 -481 -127q-2 -29 -2 -55q0 -125 60 -199.5t159 -74.5q164 0 313 202q8 31 31 43q16 25 51 86q16 29 47 29q29 0 51.5 -21.5t22.5 -54.5q0 -14 -6 -30zM803 719q-10 33 -17 86q-74 106 -159 106q-90 0 -182.5 -98t-133.5 -235q291 86 428 110 q19 13 64 31z" />
<glyph unicode="f" horiz-adv-x="544" d="M606 1530q-2 -61 -10 -82q-27 -68 -70 -68q-39 0 -55 43q-14 35 -14 99q0 74 8 127q-10 51 -57 51q-33 0 -62 -45q-37 -59 -43 -168q-10 -182 -14 -361h119q23 8 51 0q111 0 110 -59q0 -39 -41 -63q-12 -7 -32 -8q-26 0 -66 12h-143q-1 -50 -1 -101q0 -370 40 -772 l18 -170q1 -9 1 -17q0 -63 -56 -63q-53 0 -64 66q-20 143 -20 155q0 14 2 21q-39 389 -39 732q0 75 2 147q-76 -4 -107 -11q-31 -4 -49 14q-17 16 -16 40q0 56 47 71q22 8 45 8t47 -8q14 4 35 4q2 137 14 367q6 147 69.5 237.5t147.5 90.5q117 0 175 -127q29 -63 28 -150 v-12z" />
<glyph unicode="g" horiz-adv-x="974" d="M846 227q-14 -414 -51 -655q-16 -100 -64 -176q-66 -106 -172 -107q-86 0 -186 64q-41 27 -156 123q-51 20 -100 63q-61 53 -62 99q0 59 66 65h6q38 0 80 -51q18 -23 88 -86q176 -160 258 -160q94 0 123 184q27 166 49 729q-205 -270 -410 -415q-59 -43 -118 -43 q-78 0 -115 71q-31 63 -31 166q0 68 12 138q47 252 242 464.5t369 212.5q43 0 69 -12q29 53 74 53q27 0 45 -19q17 -18 17 -41q0 -53 -13.5 -271t-19.5 -396zM750 725q-41 23 -80 72q-131 -8 -287 -187q-160 -184 -201 -393q-14 -72 -14 -128q0 -63 18 -105q2 -6 11 -7 q16 0 53 25q227 156 479 528q15 117 21 195z" />
<glyph unicode="h" horiz-adv-x="1017" d="M895 51q1 -6 1 -12q0 -21 -16 -36q-22 -19 -53 -19q-43 0 -61 36t-18 85q0 40 12 88q-3 82 -3 175q0 47 1 97q0 98 6 229q4 119 4 133q0 86 -14 88q-12 4 -33 -20q-119 -137 -277 -387q-152 -240 -180 -330q-11 -30 -10 -70v-12v-12q0 -78 -64 -80q-27 0 -48 24.5 t-21 67.5q0 258 34.5 791.5t61.5 734.5q4 55 21 164q14 51 63 51q76 0 76 -76q0 -55 -45 -157q-51 -408 -84 -1194q227 397 391 569q57 61 117 61q129 0 129 -213q0 -12 -4 -131l-7 -227q-1 -38 0 -74q0 -109 5 -207q4 -78 16 -137z" />
<glyph unicode="i" horiz-adv-x="417" d="M328 1153q0 -59 -45 -66q-13 -1 -26 -1q-42 0 -68 17q-34 22 -33 71q0 74 80 77q35 0 69 -30q23 -21 23 -68zM287 170q1 -18 1 -35q0 -60 -12 -115q-12 -45 -63 -45q-49 0 -57 43q-9 42 -10 105q0 47 6 106q9 116 9 285q0 97 -3 211q-23 47 -23 94q0 66 66 66 q53 0 67 -51q4 -12 8 -105q2 -57 2 -124q0 -157 -10 -372q17 -16 19 -63z" />
<glyph unicode="j" horiz-adv-x="487" d="M399 1145q6 -19 6 -36q0 -40 -36 -60q-18 -9 -43 -10q-14 0 -31 3q-62 19 -62 81v12q2 29 27 52q23 22 49 21h4q70 -4 86 -63zM362 819q3 -18 3 -38q0 -62 -29 -140q-4 -375 -21 -827q-4 -135 -12 -197q-16 -150 -60 -213t-106 -76q-13 -3 -28 -2q-41 0 -89 21 q-47 23 -105 75l-114 107q-49 39 -120 119q-12 20 -13 41q0 29 24 52q15 15 38 15q14 0 32 -6l117 -128q117 -128 191 -169q27 -12 43 -6q16 2 39 33q33 49 47 338q4 129 20 831q2 68 4 166q4 66 70 66q61 -1 69 -62z" />
<glyph unicode="k" horiz-adv-x="1024" d="M983 92q1 -10 1 -19q0 -40 -21 -59q-14 -14 -33 -14q-31 0 -64 31q-16 12 -65 75q-115 145 -387 549l-156 -120q-4 -119 -8 -342q30 -19 29 -79v-22q-14 -180 -84 -180q-66 0 -66 135q0 59 2 137l8 256q-29 0 -48 18.5t-19 47.5q0 33 71 86q14 299 47 858q-16 49 -15 104 q0 16 1 33q2 27 24 55q19 25 44 26q4 0 8 -1q57 -6 61 -80q1 -7 1 -19q0 -35 -5 -112q-20 -330 -41 -764l90 68q0 41 31 60.5t57 6.5q172 129 345 240q63 41 102 53q33 12 59.5 -7t26.5 -54q0 -37 -25.5 -56.5t-103.5 -41.5q-209 -133 -332 -228q6 -12 14 -33 q109 -170 349 -505q11 3 20 3q30 0 53 -28q23 -35 29 -78z" />
<glyph unicode="l" horiz-adv-x="409" d="M330 1606q-59 -377 -64 -777q-2 -207 -2 -501q37 -121 37 -203q0 -76 -29.5 -113t-66.5 -37q-53 0 -53 58q-5 194 -6 483q0 145 1 313q4 256 35 553q-13 131 -12 157q0 64 30.5 101t69.5 37q29 0 46 -20q14 -17 15 -40q0 -5 -1 -11z" />
<glyph unicode="m" horiz-adv-x="1419" d="M1341 55q0 -61 -59 -61q-47 0 -78 55q-16 29 -16 115q-10 73 -11 142q0 54 7 108q9 66 8 135q0 77 -10 158q-12 90 -45 90q-25 0 -86 -64q-39 -41 -95.5 -133t-74.5 -141q-16 -33 -54 -166q-12 -61 -30 -172q-2 -43 -25 -76q-20 -29 -51 -29h-8q-53 6 -54 111 q0 14 19 178q10 84 10 203q0 125 -24 244q-14 43 -23 43q-29 0 -102 -88q-117 -141 -228 -381q-14 -41 -28.5 -92.5t-26.5 -104.5q-20 -78 -39 -94q-16 -31 -49 -31q-63 0 -68 94v37q0 80 6 211q4 92 33 471q-16 55 -15 100q0 13 1 25q10 78 74 78q68 0 67 -82q0 8 -10 -120 t-27 -392q121 248 226 360q119 127 186 127q102 0 135 -127q23 -84 27 -215q96 178 162 244q102 100 180 100q68 0 112 -67q33 -53 43 -129q9 -81 9 -166q0 -75 -6 -154q-6 -71 -6.5 -123t6.5 -86q10 -57 24 -82.5t14 -52.5z" />
<glyph unicode="n" horiz-adv-x="1009" d="M918 66v-12q0 -81 -56 -89q-4 -1 -8 0q-22 0 -42 18q-24 22 -28 61.5t-16 139.5q-14 37 -4 56q-10 143 -35 448q-6 80 -20 82q-2 1 -5 1q-26 0 -106 -81q-170 -174 -309 -440q-23 -45 -68 -209q-18 -68 -63 -68q-29 -12 -52 -4q-40 13 -39 65q0 7 1 15q29 240 32 268 q16 80 54 506q-18 48 -19 89q0 14 2 26q11 74 70 74h12q23 -2 40 -22.5t17 -43.5q0 -78 -6 -129q-8 -121 -39 -422q104 190 281 375q121 129 205 129q23 0 43 -8q68 -31 88 -189q6 -150 35 -479q17 -51 35 -157z" />
<glyph unicode="o" d="M854 834q45 -70 45 -164q0 -121 -65 -242q-145 -272 -369 -410q-86 -51 -168 -51q-98 0 -158 82q-78 109 -78 309q0 152 58 297q51 133 127 203q86 80 147 80q20 0 41 -8q80 29 158 28q70 0 145 -34q84 -37 117 -90zM748 782q-20 25 -67.5 42.5t-86.5 17.5 q-49 0 -93 -15.5t-104 -78.5q-20 -25 -49 -25t-47 25q-53 -66 -88 -176.5t-35 -209.5q0 -178 60 -249q27 -31 61 -31q35 0 104 41q195 115 332 369q47 88 47 176q1 69 -34 114z" />
<glyph unicode="p" horiz-adv-x="1017" d="M936 788q23 -39 22 -108q0 -164 -79 -299q-141 -238 -387 -371q-90 -51 -150 -51q-76 0 -143 53q-12 -90 -35 -284q13 -116 12 -158v-10q-6 -137 -82 -138q-59 0 -59 134q0 18 6 86q6 82 6 92q4 74 37 329q68 512 94 666q25 139 45 182q26 55 62 56q7 0 14 -2 q45 -10 57 -56q84 20 138 21q92 12 135 12q215 0 307 -154zM711 815q-35 8 -82 8q-182 0 -318 -82l-14 -34q-25 -139 -68 -469q25 -29 50 -134q29 -27 61 -26q33 0 94 35q219 129 340 329q68 111 68 228q0 116 -131 145z" />
<glyph unicode="q" horiz-adv-x="1046" d="M1024 848q-2 -25 -55 -131q-29 -111 -56 -326q-45 -362 -65 -725q19 -75 19 -134q0 -91 -76 -91q-53 0 -66 86v-2q2 0 2 113q-14 31 2 57q20 313 59 649q-176 -217 -350 -317q-119 -70 -215 -70q-76 0 -119 45q-51 51 -51 141q0 29 6 64q23 184 107 362q78 170 174 260 q182 174 346 175q121 0 221 -82q22 24 50 23q6 0 12 -1q27 -4 43 -34q13 -24 13 -49q0 -6 -1 -13zM866 797q-82 88 -184 88q-123 0 -264 -146q-76 -76 -144 -225q-76 -164 -98 -321q-4 -30 -4 -52q0 -40 14 -53q14 -14 41 -14q55 0 156 55q92 53 222 188.5t218 276.5 q20 82 43 203z" />
<glyph unicode="r" horiz-adv-x="772" d="M743 721q-11 -51 -69 -52q-4 0 -8 1q-53 2 -54 69q0 86 -6 88q-10 2 -39 -26q-90 -94 -207 -332q-41 -84 -81 -217q-4 -88 -15 -203q-18 -68 -78 -67q-72 0 -71 85q0 62 45 203q2 86 12 262q14 190 14 286.5t4 160.5q4 57 68 57q72 0 72 -82q0 -43 -27 -141 q-2 -63 -8 -215q104 199 181 278.5t134 79.5q37 0 72 -28q16 -12 39 -74q26 -67 26 -107q-1 -15 -4 -26z" />
<glyph unicode="s" horiz-adv-x="1011" d="M938 408q0 -137 -119 -246q-172 -158 -358 -158q-115 0 -197 76q-51 45 -74 104q-8 21 -8 38q0 36 35 59q18 10 37 10q31 0 55.5 -29t46.5 -102q41 -37 105 -37q139 0 278 127q29 27 54.5 75t25.5 83q0 37 -47 47q-76 16 -215 20l-238 8q-55 2 -145 17q-96 33 -96 100 q0 49 49 107q68 78 203 151q80 43 211 84q143 47 245 59q14 1 26 2q48 0 77 -20q41 -31 41 -82q0 -37 -28 -65q-22 -22 -50 -23q-8 0 -16 2q-43 8 -52 66q-217 -31 -397 -127q-59 -31 -117.5 -77t-58.5 -63q0 -8 119 -13t237 -7q147 -6 224 -23q147 -28 147 -163z" />
<glyph unicode="t" horiz-adv-x="649" d="M639 1051q0 -66 -74 -68h-9q-26 0 -71 8h-65q-43 -2 -64 -2q-27 -349 -27 -626q0 -117 5 -222q47 -14 47 -82q0 -92 -4 -116q-12 -59 -68 -64h-2q-53 0 -71 80q-12 57 -19 158q-6 92 -6 214q0 259 27 656q-117 -10 -160 -10q-61 0 -62 57q0 57 60 70q19 4 37 4 q26 0 51 -8l82 4l10 121q-1 12 -1 29q0 83 32 290q15 99 65 99q3 0 6 -1q48 -7 49 -84q0 -11 -1 -24q-16 -147 -41 -428q23 0 64.5 2t62.5 2q70 0 96 -4q51 -4 51 -55z" />
<glyph unicode="u" horiz-adv-x="931" d="M879 29q9 -22 9 -40q0 -27 -20 -46q-18 -18 -49 -19q-33 0 -59 25q-35 33 -64 119q-25 25 -14 49q-37 168 -39 366q-92 -225 -205 -391q-66 -96 -149 -96q-80 0 -133 96q-66 116 -66 320v24q2 195 41 400q-10 31 8 53q6 57 31 100q22 52 61 52q4 0 9 -1q61 -6 61 -73 q0 -41 -49 -129q-43 -209 -43 -400q0 -201 45 -284q18 -37 39 -37q16 0 47 43q119 168 225 452q66 176 80 301q12 102 73 103h3q65 -4 65 -89q0 -12 -2 -26q-20 -231 -20 -319q0 -272 37 -451q49 -39 78 -102z" />
<glyph unicode="v" horiz-adv-x="841" d="M842 969l-62 -111q-127 -238 -360 -717q-25 -53 -25 -76q0 -11 0.5 -22t1.5 -19.5t1.5 -16.5t1.5 -14t2 -10.5t1 -6.5v-3q-14 -63 -63 -65h-3q-51 0 -73 59q-20 55 -35 211q-25 250 -94 660q-51 55 -61 116q-2 11 -3 22q0 26 15 49q20 32 53 32q18 0 37 -15 q47 -31 74 -168q43 -225 90 -626l334 659q12 72 33 111q31 57 81 57q16 0 33 -8q35 -16 35 -51q0 -24 -14 -47z" />
<glyph unicode="w" horiz-adv-x="1370" d="M1337 682q0 -205 -157 -424q-111 -154 -228 -240q-66 -47 -139 -47q-109 0 -184 123q-66 106 -82 268q-90 -227 -168 -317q-55 -63 -115 -63q-70 0 -108 92q-39 93 -40 257q0 16 1 31q8 227 37 426q8 70 30 181q17 59 63 59q8 0 17 -2q63 -12 64 -86q0 -72 -58 -168 q-27 -172 -34 -407q-1 -28 -2 -53q0 -117 24 -177q10 -25 16 -24q27 0 103 168q61 131 84 202q53 154 71 316q10 88 76 88h6q76 -2 76 -78q0 -12 -2 -27q-27 -160 -26 -319q0 -193 65 -299q45 -72 84 -72q125 0 272 240q137 223 138 358q0 115 -43 160q-43 6 -76 18 q-66 27 -66 74q0 68 70 68q18 0 43 -7q47 -12 94 -55q37 -27 65.5 -103.5t28.5 -160.5z" />
<glyph unicode="x" horiz-adv-x="917" d="M805 -78q-18 0 -35 8q-70 25 -121 82q-184 213 -278 396q-115 -168 -209 -332q-4 -33 -27 -96q-31 -53 -76 -54q-63 0 -63 66q0 23 10 43q14 29 55 100q139 236 250 393q-88 176 -121 299q-14 47 -32 119q-2 12 -3 23q0 42 40 57q14 6 26 6q53 0 76 -69q10 -30 10 -72 q0 -18 -2 -37q18 -66 84 -215q129 168 264 303q47 49 72 64q21 12 38 12q26 0 44 -27q16 -23 16 -47q0 -33 -22 -53q-29 -27 -72 -39q-170 -176 -285 -332q139 -266 279 -414l58 -17q30 -9 48 -26q49 -45 50 -75q0 -66 -74 -66z" />
<glyph unicode="y" horiz-adv-x="1024" d="M961 838q-33 -147 -50 -308q-14 -180 -49 -575q-27 -272 -57 -346q-47 -115 -103 -166q-63 -55 -155 -55q-106 0 -238 77l-135 74q-47 25 -137 55q-72 27 -72 74q0 10 4 21q18 43 68 43q92 0 194 -90q84 -41 136 -72q109 -63 182 -64q109 0 158 191q16 66 36 272 q18 184 41 475q-55 -113 -127 -215q-27 -39 -116 -139q-119 -137 -205 -137q-68 0 -125 65q-49 55 -74 134q-31 92 -31 223q0 141 29 373q4 51 17 126q14 47 65 48h4q72 -6 72 -82v-13q-4 -41 -41 -102q-29 -250 -29 -350t25 -176q39 -129 86 -129q31 0 125 106 q170 190 260 406q45 113 65 198q14 66 29 97q22 50 71 49h11q33 -4 52 -31q15 -20 15 -43q0 -7 -1 -14z" />
<glyph unicode="z" horiz-adv-x="1003" d="M948 958q29 -25 29 -53q0 -37 -33 -63q-55 -49 -106 -70q-205 -215 -545 -633h13q95 0 212 -26q98 -27 246 -60q43 39 90 39q74 0 74 -72q0 -59 -90 -77q-31 -6 -70 -6q-49 0 -141 22l-138 37q-111 27 -184 27q-61 0 -112 -17q-37 -51 -78 -51q-39 0 -58 31 q-12 18 -11 36q0 24 20 48q18 20 51 36q336 428 532 642q-178 -20 -256 -21q-75 -34 -137 -34q-20 0 -39 3q-41 8 -70 35q-24 22 -23 51q0 6 1 13q10 68 94 67q14 0 73.5 -8t90.5 -8q125 0 391 33q31 35 78 79q23 16 51 17q27 -1 45 -17z" />
<glyph unicode="{" horiz-adv-x="681" d="M678 1739q0 -61 -72 -80q-35 -8 -114 -2q-43 -29 -80 -101q-41 -82 -47 -268q-2 -35 -11 -231q-8 -139 -32 -203q-33 -80 -89 -111q55 -31 80 -104q23 -66 19 -221l-6 -232q-6 -186 30 -268q39 -90 95 -119q41 6 84 -2q70 -14 69 -65q0 -47 -65 -54q-80 -8 -146 33 q-94 55 -143 168q-23 49 -33 166q-6 78 -4 143q2 43 4 230q2 119 -10 157q-18 66 -51 91q-6 2 -19 10q-39 -14 -59 -10q-41 10 -47 47q-8 51 45 73q41 18 82 46t61 90q14 39 21 135q4 84 10 231q2 63 16 142q18 117 43 165q57 113 154 168q59 33 147 35q33 0 50.5 -17 t17.5 -42z" />
<glyph unicode="|" horiz-adv-x="417" d="M287 -205q4 -80 -11 -147q-12 -47 -63 -47q-49 0 -57 43q-16 74 -4 211q2 27 6 741q4 737 0 868q-23 47 -23 95q0 66 66 65q53 0 67 -51q4 -12 8 -103q2 -68 0 -757q-2 -725 -8 -854q17 -17 19 -64z" />
<glyph unicode="}" horiz-adv-x="681" d="M664 713q-10 -37 -52 -47q-20 -4 -57 10l-20 -10q-35 -25 -58 -91q-14 -39 -22 -157l-11 -230q-4 -66 -16 -143q-18 -117 -43 -166q-57 -113 -154 -168q-70 -41 -149 -33q-66 6 -62 54q4 51 74 65q43 8 86 2q57 29 103 119q41 82 47 268q2 33 10 232q8 156 35 221 q31 74 86 104q-51 31 -78 111q-23 63 -18 203l4 231q6 186 -29 268q-31 72 -72 101q-82 -6 -114 2q-72 18 -68 80q4 61 72 59q90 -2 145 -35q94 -55 143 -168q20 -49 31 -165q8 -78 6 -142q-2 -45 -4 -231q-2 -96 8 -135q18 -61 57.5 -89t78.5 -47q51 -22 41 -73z" />
<glyph unicode="~" horiz-adv-x="956" d="M821 580q-88 -70 -174 -72q-61 -2 -172 47q-72 45 -125 39q-37 -4 -59 -19q-53 -76 -113 -75q-72 0 -72 59q0 37 84 92q78 49 150 56q92 8 195 -48q70 -39 108 -38q6 0 41 12q35 27 66 43q20 12 38 12q59 0 60 -59q0 -31 -27 -49z" />
<glyph unicode="&#xa1;" horiz-adv-x="585" d="M391 940q0 -39 -26.5 -66.5t-65.5 -27.5t-66.5 26.5t-27.5 65.5t26.5 65.5t65.5 26.5t66.5 -25.5t27.5 -64.5zM379 438q-8 -193 -47 -463l-76 -467q2 -12 6 -55q4 -33 4 -53q0 -113 -61 -119q-72 -4 -78 101q-2 53 12 143l76 473q18 137 47 438q-33 57 -37 96 q-6 117 64 121q66 2 82 -67q12 -62 8 -148z" />
<glyph unicode="&#xa2;" horiz-adv-x="819" d="M737 489q-139 -188 -315 -258q0 -27 -2 -41q18 -61 -6 -92q-18 -41 -54 -41q-55 0 -55 60q4 27 8 92q-125 -2 -200.5 67.5t-83.5 204.5q-12 180 110 418q100 195 258 221q2 18 6 47q-14 55 -10 93q8 78 64 77q25 0 44 -20.5t17 -48.5l-14 -150q55 -14 94 -51q16 16 41 16 q57 0 57 -57q0 -12 -5 -26.5t-3 -53.5q2 -98 -72 -98q-47 0 -58 36l-21 70q-14 23 -45 39l-62 -626q117 66 213 194q18 23 45 23q23 0 42.5 -17.5t19.5 -42.5q-1 -19 -13 -35zM381 993q-80 -43 -133 -145q-111 -215 -103 -363q4 -68 45 -112q51 -57 129 -45z" />
<glyph unicode="&#xa3;" horiz-adv-x="1130" d="M946 143q57 -8 58 -63q0 -37 -31 -58.5t-68 -21.5t-102 35q-96 4 -205 -2q-266 -14 -391 -62q-14 -12 -35 -12q-23 0 -41 17.5t-18 41.5q0 20 14 41q35 43 66 193q23 111 36 295h-18q-88 -14 -115 -10q-49 10 -49 61q0 66 66 66q-8 0 123 6q8 160 32 426q59 373 267 379 q137 4 256 -162q109 -152 108 -299q0 -76 -31 -135q-20 -39 -61 -39q-74 0 -70 84q2 61 39 127q-2 14 -6 32q-25 104 -90 189q-72 86 -145 84q-106 0 -148 -277q-14 -92 -35 -407q96 2 289 10q63 0 64 -57q0 -47 -52 -72q-41 -18 -121 8q-61 -4 -184 -10q-16 -207 -37 -320 q-8 -41 -26 -118q119 25 309 39q194 11 352 -9z" />
<glyph unicode="&#xa4;" horiz-adv-x="1890" d="M1772 115q2 -55 -64 -64q-82 -2 -250 -10q-16 -41 -31 -59q-20 -27 -55 -27q-59 0 -65 55v21q-55 -2 -123 -8q-39 -25 -86 -27q-51 -4 -90 17.5t-39 60.5q0 49 84 60t172 13q37 2 92 7l106 845l21 177q-63 -63 -111 -99q-29 -61 -45 -78q-31 -41 -65 -41q-20 0 -39 15 q-45 37 -17 94q12 23 74 84q45 45 158 141q41 37 84 37q86 0 82 -115q-4 -74 -25 -225l-106 -831q37 2 108 4q59 2 66 2q61 14 86 14q74 0 78 -63zM842 969l-62 -111q-127 -238 -360 -717q-27 -57 -25 -80q8 -84 8 -88q-14 -63 -63 -65q-53 -2 -76 59q-20 55 -35 211 q-25 250 -94 660q-51 55 -61 116q-8 39 12 71t53 32q18 0 37 -15q47 -31 74 -168q43 -225 90 -626l334 659q12 72 33 111q31 57 81 57q16 0 33 -8q35 -16 35 -51q0 -24 -14 -47zM748 -20q-23 0 -46 10q-41 23 -40 71q0 27 14 52q23 37 72 37q27 0 49 -13q35 -23 34 -71 q0 -37 -24 -61.5t-59 -24.5z" />
<glyph unicode="&#xa6;" horiz-adv-x="1179" d="M692 932q2 -20 -12 -78q-10 -45 -64 -45q-47 0 -55 43q-12 55 -6 139q0 -12 -4 170q-6 174 8 293q-16 47 -8 94q12 66 78 66q55 0 59 -53q0 -12 -12 -104.5t-2 -461.5q16 -16 18 -63zM692 -201q2 -41 -12 -100q-10 -45 -64 -45q-47 0 -55 43q-14 59 -6 162q14 170 8 438 q-25 47 -24 94q0 66 67 66q53 0 68 -51q4 -12 6 -105q6 -158 -6 -438q16 -17 18 -64z" />
<glyph unicode="&#xa8;" horiz-adv-x="565" d="M506 1284q-20 -37 -62 -37q-33 0 -60.5 23.5t-27.5 56.5q0 20 11 39q23 37 63 37q33 0 60.5 -23.5t27.5 -56.5q0 -21 -12 -39zM233 1282q-23 -37 -63 -37q-33 0 -59.5 23.5t-26.5 56.5q0 20 10 39q20 37 62 37q35 0 61.5 -24.5t26.5 -57.5q-1 -19 -11 -37z" />
<glyph unicode="&#xa9;" horiz-adv-x="1581" d="M1518 913q0 -352 -156 -594q-125 -199 -309.5 -295t-370.5 -96q-250 0 -424 217q-66 82 -111 203q-49 137 -49 273q0 238 107 444q84 162 149 209q45 33 95 14q8 0 26 -2h25q254 158 475 158q195 0 352 -127q82 -66 136.5 -178.5t54.5 -225.5zM1397 913q0 86 -45 178.5 t-119 151.5q-109 86 -256 86q-193 0 -414 -145q-82 -53 -229 -170q-12 -12 -29 -15q-86 -180 -86 -381q0 -227 143 -411q102 -133 240 -156q41 -8 84 -8q158 0 297 80q172 98 272 256q142 221 142 534zM1174 553q-6 -31 -44 -78q-221 -274 -419 -274q-119 0 -191 75 q-78 84 -78 228q0 178 111 405q53 109 133 171.5t162 62.5q94 0 156 -62q14 12 36 13q61 0 62 -56q0 -8 -5 -23.5t-5 -23.5q2 -8 4 -33q6 -102 -66 -102q-84 0 -86 100q0 6 -2 11q-39 55 -94 55q-106 0 -189 -168q-96 -199 -96 -350q0 -184 148 -185q154 0 321 226 q4 20 20.5 60t57.5 40q31 0 49.5 -29.5t14.5 -62.5z" />
<glyph unicode="&#xaa;" horiz-adv-x="995" d="M899 391q0 -18 -31 -61q-2 -27 -14 -162q14 -53 14 -98q0 -94 -67 -95q-29 0 -49 19q-25 21 -25 52q0 18 10 126q-256 -248 -477 -248q-78 0 -129 41q-70 55 -70 168v19q12 219 199 356q172 123 399 123q57 0 113 -8q3 63 3 110q0 115 -17 148q-10 14 -33 14 q-90 0 -291 -131q-74 -94 -121 -94q-76 0 -76 67q0 36 33 60q27 16 78 51q16 23 41 26q227 137 352 138q57 0 97.5 -42t46.5 -100q6 -53 6 -135q0 -118 -12 -295q20 -12 20 -49zM766 504q-53 8 -107 8q-145 0 -266 -59q-199 -100 -215 -308v-14q0 -51 27 -74q18 -18 55 -18 q115 0 277 121q137 100 217 213q8 80 12 131z" />
<glyph unicode="&#xab;" horiz-adv-x="706" d="M614 686q-33 -43 -82 -63l-88 -84q-29 -27 -28 -45q0 -18 39 -70q16 -25 57 -74q57 -31 90 -86q10 -18 10 -37q0 -47 -43 -47q-18 0 -32 15q-57 57 -148 178q-68 88 -67 127q0 37 61 100l156 152q14 12 32 12q20 0 37 -15.5t17 -35.5q-1 -15 -11 -27zM352 686 q-31 -43 -82 -63l-86 -84q-31 -27 -30 -45q0 -18 39 -70q16 -25 57 -74q59 -31 92 -86q8 -18 8 -37q0 -47 -41 -47q-18 0 -33 15q-57 57 -149 178q-68 88 -68 127q0 37 67 103l153 149q12 12 30 12q20 0 36.5 -15.5t16.5 -35.5q0 -15 -10 -27z" />
<glyph unicode="&#xac;" horiz-adv-x="1073" />
<glyph unicode="&#xad;" horiz-adv-x="999" d="M874 492q-47 -18 -126 0q-211 6 -496 8q-86 -29 -127 -17q-47 12 -47 62q0 66 61 67q414 16 711 0q63 -4 63 -61q0 -43 -39 -59z" />
<glyph unicode="&#x2212;" horiz-adv-x="999" d="M874 492q-47 -18 -126 0q-211 6 -496 8q-86 -29 -127 -17q-47 12 -47 62q0 66 61 67q414 16 711 0q63 -4 63 -61q0 -43 -39 -59z" />
<glyph unicode="&#xae;" horiz-adv-x="1581" d="M1518 913q0 -352 -156 -594q-125 -199 -309.5 -295t-370.5 -96q-250 0 -424 217q-66 82 -111 203q-49 137 -49 273q0 238 107 444q84 162 149 209q45 33 95 14q8 0 26 -2h25q254 158 475 158q195 0 352 -127q82 -66 136.5 -178.5t54.5 -225.5zM1397 913q0 86 -45 178.5 t-119 151.5q-109 86 -256 86q-193 0 -414 -145q-82 -53 -229 -170q-12 -12 -29 -15q-86 -180 -86 -381q0 -227 143 -411q102 -133 240 -156q41 -8 84 -8q158 0 297 80q172 98 272 256q142 221 142 534zM1139 932q0 -72 -58 -152q-84 -113 -202 -182l151 -170q18 -20 45 -53 q18 -20 19 -43q0 -57 -60 -58q-57 0 -90 80l-170 195q-53 -20 -100 -23q-2 -70 -2 -116q10 -25 10 -56q0 -76 -61 -75q-61 0 -62 122q0 86 2 150q-20 12 -46 36.5t-26 59.5q0 20 13 33q25 29 65 18q6 129 21 271q-16 -10 -27 -15q-16 -4 -31 -4q-66 0 -65 60q0 35 37 55 t65 27q90 25 203 24q168 0 268.5 -43t100.5 -141zM1026 932q0 25 -31 37q-119 43 -282 32q-6 -12 -13 -34q-16 -139 -22 -326q14 0 29 4q-6 59 53 60q27 0 49 -17q102 55 184 162q33 45 33 82z" />
<glyph unicode="&#xb0;" horiz-adv-x="780" d="M700 1143q0 -127 -91 -217t-218 -90t-217 90t-90 217t90 218t217 91t218 -91t91 -218zM588 1143q0 82 -57.5 139t-139.5 57t-138 -57t-56 -139t56 -138.5t138 -56.5t139.5 56.5t57.5 138.5z" />
<glyph unicode="&#xb2;" horiz-adv-x="1329" d="M1317 139q-35 -41 -92 -63q-109 -47 -248 -41q-285 12 -748 12q-59 -43 -82 -43q-72 0 -71 70q0 45 29.5 67.5t78.5 22.5q670 487 887 782q88 121 88 195q0 125 -168 125q-152 0 -334 -62q-160 -51 -266 -121q-55 -80 -86 -104q-43 -35 -84 -35q-66 0 -65 68 q0 37 37.5 74.5t134.5 97.5q125 80 288 133q195 66 371 65q106 0 184 -49q66 -43 89 -104q16 -41 16 -86q0 -119 -105 -264q-227 -315 -788 -711q336 0 596 -14q102 -6 182 20q33 51 68 76q23 14 45 14q63 0 63 -69q0 -31 -20 -56z" />
<glyph unicode="&#xb3;" horiz-adv-x="1282" d="M1225 537q0 -170 -176 -301q-250 -184 -512 -265q-137 -41 -224 -41q-139 0 -204 72q-55 61 -56 135q0 45 19 80q23 45 65 45q55 0 70 -84q6 -33 -2 -100q39 -31 108 -31q66 0 187 37q221 70 477 248q129 90 129 205q0 74 -113 110q-137 47 -362 33q-147 -8 -240 -16 q-76 -43 -119 -48q-82 -8 -94 56q-10 57 53 84q27 12 131 24l224 94q240 102 332 203q61 63 61 119q0 41 -98 41q-219 0 -533 -125q-37 -51 -79 -71.5t-72 -20.5q-72 0 -72 70q0 39 35 61q49 33 129 63q360 139 581 140q227 0 228 -158q0 -100 -92 -203q-86 -94 -295 -192 q213 0 329 -43q185 -65 185 -221z" />
<glyph unicode="&#xb4;" horiz-adv-x="405" d="M289 1395q-25 -18 -79 -62.5t-81 -62.5q-16 -25 -51 -47q-12 -6 -25 -6q-51 0 -51 51q0 25 21 41l305 233q14 8 32 8q66 0 66 -51q0 -25 -26.5 -51t-110.5 -53z" />
<glyph unicode="&#xb8;" horiz-adv-x="1024" d="M559 -236q0 -78 -56.5 -127t-133.5 -49q-68 0 -127 17q-86 23 -86 67q0 25 17 44.5t40 19.5t45 -17l31 -20q29 -8 80 -8q84 0 84 73q0 53 -82 54q-12 0 -35 -2t-35 -2q-49 0 -49 43q0 16 35 61l100 135q18 20 39 21q51 0 51 -51q0 -10 -76 -113q66 0 112 -41.5t46 -104.5 z" />
<glyph unicode="&#xb9;" horiz-adv-x="868" d="M815 115q2 -55 -63 -64q-82 -2 -250 -10q-16 -41 -31 -59q-20 -27 -55 -27q-57 0 -66 55v21q-55 -2 -121 -8q-41 -25 -88 -27q-51 -4 -90 17.5t-39 60.5q0 49 84 60t172 13q37 2 92 7l107 845q14 117 20 177q-63 -63 -110 -99q-27 -61 -45 -78q-31 -41 -66 -41 q-20 0 -37 15q-47 37 -18 94q12 23 74 84q45 45 157 141q43 37 84 37q86 0 82 -115q-4 -74 -24 -225q-33 -276 -107 -831q37 2 109 4q59 2 67 2q59 14 84 14q74 0 78 -63z" />
<glyph unicode="&#xba;" d="M854 834q45 -70 45 -164q0 -121 -65 -242q-145 -272 -369 -410q-86 -51 -168 -51q-98 0 -158 82q-78 109 -78 309q0 152 58 297q51 133 127 203q86 80 147 80q20 0 41 -8q80 29 158 28q70 0 145 -34q84 -37 117 -90zM748 782q-20 25 -67.5 42.5t-86.5 17.5 q-49 0 -93 -15.5t-104 -78.5q-20 -25 -49 -25t-47 25q-53 -66 -88 -176.5t-35 -209.5q0 -178 60 -249q27 -31 61 -31q35 0 104 41q195 115 332 369q47 88 47 176q1 69 -34 114z" />
<glyph unicode="&#xbb;" horiz-adv-x="706" d="M586 356l-152 -151q-16 -18 -39 -19q-45 0 -45 50q0 59 123 124q82 80 82 105q0 20 -39 67l-59 68q-59 31 -97 90q-16 25 -16 45q0 39 43 39q20 0 39 -14q39 -29 156 -174q68 -82 67 -125q0 -37 -63 -105zM332 356l-154 -151q-16 -18 -37 -19q-45 0 -45 50q0 59 123 124 q80 80 80 105q0 20 -37 67l-59 68q-59 31 -97 90q-16 25 -16 45q0 39 43 39q20 0 39 -14q51 -39 156 -174q66 -86 65 -127q0 -37 -61 -103z" />
<glyph unicode="&#xbc;" horiz-adv-x="3149" d="M3137 563q0 -63 -84 -76q-113 -16 -221 5q-12 -240 -16 -328q23 -66 22 -127q0 -100 -67 -103q-61 -4 -70 78q-6 57 -2 144q2 100 14 325l-723 -102q-68 -59 -100 -60q-78 0 -80 70q-2 90 133 105l402 356l467 422q14 59 47 92q25 25 57 25q31 0 55 -27q37 -43 4 -94 q-2 -6 -57 -62q-37 -201 -74 -590q147 16 201 17q92 0 92 -70zM2777 1073l-353 -313l-270 -238q293 45 569 78q23 297 54 473zM1845 1513q-20 -115 -328 -632l-473 -805q-37 -178 -82 -228q-16 -16 -39 -16q-29 0 -49 21.5t-12 50.5q29 115 352 653q383 643 467 809 q33 217 111 217q25 0 42 -20.5t11 -49.5zM815 115q2 -55 -63 -64q-82 -2 -250 -10q-16 -41 -31 -59q-20 -27 -55 -27q-57 0 -66 55v21q-55 -2 -121 -8q-41 -25 -88 -27q-51 -4 -90 17.5t-39 60.5q0 49 84 60t172 13q37 2 92 7l107 845q14 117 20 177q-63 -63 -110 -99 q-27 -61 -45 -78q-31 -41 -66 -41q-20 0 -37 15q-47 37 -18 94q12 23 74 84q45 45 157 141q43 37 84 37q86 0 82 -115q-4 -74 -24 -225q-33 -276 -107 -831q37 2 109 4q59 2 67 2q59 14 84 14q74 0 78 -63z" />
<glyph unicode="&#xbd;" horiz-adv-x="3137" d="M3125 139q-35 -41 -92 -63q-109 -47 -248 -41q-285 12 -748 12q-59 -43 -82 -43q-72 0 -71 70q0 45 29.5 67.5t78.5 22.5q670 487 887 782q88 121 88 195q0 125 -168 125q-152 0 -334 -62q-160 -51 -266 -121q-55 -80 -86 -104q-43 -35 -84 -35q-66 0 -65 68 q0 37 37.5 74.5t134.5 97.5q125 80 288 133q195 66 371 65q106 0 184 -49q66 -43 89 -104q16 -41 16 -86q0 -119 -105 -264q-227 -315 -788 -711q336 0 596 -14q102 -6 182 20q33 51 68 76q23 14 45 14q63 0 63 -69q0 -31 -20 -56zM1845 1513q-20 -115 -328 -632l-473 -805 q-37 -178 -82 -228q-16 -16 -39 -16q-29 0 -49 21.5t-12 50.5q29 115 352 653q383 643 467 809q33 217 111 217q25 0 42 -20.5t11 -49.5zM815 115q2 -55 -63 -64q-82 -2 -250 -10q-16 -41 -31 -59q-20 -27 -55 -27q-57 0 -66 55v21q-55 -2 -121 -8q-41 -25 -88 -27 q-51 -4 -90 17.5t-39 60.5q0 49 84 60t172 13q37 2 92 7l107 845q14 117 20 177q-63 -63 -110 -99q-27 -61 -45 -78q-31 -41 -66 -41q-20 0 -37 15q-47 37 -18 94q12 23 74 84q45 45 157 141q43 37 84 37q86 0 82 -115q-4 -74 -24 -225q-33 -276 -107 -831q37 2 109 4 q59 2 67 2q59 14 84 14q74 0 78 -63z" />
<glyph unicode="&#xbe;" horiz-adv-x="3563" d="M3551 563q0 -63 -84 -76q-113 -16 -221 5q-12 -240 -16 -328q23 -66 22 -127q0 -100 -67 -103q-61 -4 -70 78q-6 57 -2 144q2 100 14 325l-723 -102q-68 -59 -100 -60q-78 0 -80 70q-2 90 133 105l402 356l467 422q14 59 47 92q25 25 57 25q31 0 55 -27q37 -43 4 -94 q-2 -6 -57 -62q-37 -201 -74 -590q147 16 201 17q92 0 92 -70zM3191 1073l-353 -313l-270 -238q293 45 569 78q23 297 54 473zM2259 1513q-20 -115 -328 -632l-473 -805q-37 -178 -82 -228q-16 -16 -39 -16q-29 0 -49 21.5t-12 50.5q29 115 352 653q383 643 467 809 q33 217 111 217q25 0 42 -20.5t11 -49.5zM1225 537q0 -170 -176 -301q-250 -184 -512 -265q-137 -41 -224 -41q-139 0 -204 72q-55 61 -56 135q0 45 19 80q23 45 65 45q55 0 70 -84q6 -33 -2 -100q39 -31 108 -31q66 0 187 37q221 70 477 248q129 90 129 205q0 74 -113 110 q-137 47 -362 33q-147 -8 -240 -16q-76 -43 -119 -48q-82 -8 -94 56q-10 57 53 84q27 12 131 24l224 94q240 102 332 203q61 63 61 119q0 41 -98 41q-219 0 -533 -125q-37 -51 -79 -71.5t-72 -20.5q-72 0 -72 70q0 39 35 61q49 33 129 63q360 139 581 140q227 0 228 -158 q0 -100 -92 -203q-86 -94 -295 -192q213 0 329 -43q185 -65 185 -221z" />
<glyph unicode="&#xbf;" horiz-adv-x="1193" d="M913 991q0 -39 -26.5 -65.5t-65.5 -26.5t-66.5 26.5t-27.5 65.5t26.5 65.5t65.5 26.5t66.5 -26.5t27.5 -65.5zM1008 -377q0 -94 -156 -188q-211 -127 -453 -127q-174 0 -271 84t-97 215q0 102 67 227q57 104 127 166q90 80 228 150q164 84 295 96l20 329q-12 47 -8 105 q2 29 24.5 50.5t53.5 19.5q29 -2 47 -27t12 -53q-10 -57 -12 -95q-8 -104 -21 -342q47 -20 47 -77q0 -29 -16 -50q-23 -29 -64 -28q-59 0 -83 47q-102 -12 -240 -82q-119 -61 -197 -127q-53 -45 -104 -133q-59 -100 -60 -176q0 -78 58 -125q68 -57 194 -57q193 0 381 104 q23 57 74 111q43 45 92 45q62 -1 62 -62z" />
<glyph unicode="&#xc0;" horiz-adv-x="1179" d="M1141 43q1 -8 0 -14q0 -77 -62 -90q-7 -2 -14 -2q-38 0 -57 49q-12 33 -33 118l-101 365q-217 12 -550 12q-33 -80 -136 -311l2 -26q0 -58 -30 -113q-27 -51 -82 -51q-14 0 -29 6q-35 16 -35 55q0 18 6 41l60 133l115 266q-20 0 -33 -4q-22 -17 -62 -17q-8 0 -16 1 q-74 16 -74 74q0 55 84 61q31 2 152 2l334 737q-1 7 -2 15q0 28 18 59q8 18 41 43t59 27h8q66 0 70 -68q0 -6 1 -11q0 -48 -32 -95l226 -719q6 0 51 -4q53 -4 53 -62q0 -23 -16.5 -39t-34.5 -16q-14 0 -21 2l93 -330q43 -49 47 -94zM838 588q-68 242 -189 624l-274 -614 q234 0 463 -10zM799 1647q20 -16 21 -39q0 -23 -17.5 -41t-42.5 -18q-31 0 -82 57q-8 8 -143 113q-88 35 -117 67q-18 18 -18 41q0 27 18.5 44.5t42.5 17.5q18 0 35 -9z" />
<glyph unicode="&#xc1;" horiz-adv-x="1179" d="M1141 43q1 -8 0 -14q0 -77 -62 -90q-7 -2 -14 -2q-38 0 -57 49q-12 33 -33 118l-101 365q-217 12 -550 12q-33 -80 -136 -311l2 -26q0 -58 -30 -113q-27 -51 -82 -51q-14 0 -29 6q-35 16 -35 55q0 18 6 41l60 133l115 266q-20 0 -33 -4q-22 -17 -62 -17q-8 0 -16 1 q-74 16 -74 74q0 55 84 61q31 2 152 2l334 737q-1 7 -2 15q0 28 18 59q8 18 41 43t59 27h8q66 0 70 -68q0 -6 1 -11q0 -48 -32 -95l226 -719q6 0 51 -4q53 -4 53 -62q0 -23 -16.5 -39t-34.5 -16q-14 0 -21 2l93 -330q43 -49 47 -94zM838 588q-68 242 -189 624l-274 -614 q234 0 463 -10zM793 1719q-25 -18 -79 -62.5t-81 -62.5q-16 -25 -51 -47q-12 -6 -25 -6q-51 0 -51 51q0 25 21 41l305 233q14 8 32 8q66 0 66 -51q0 -25 -26.5 -51t-110.5 -53z" />
<glyph unicode="&#xc2;" horiz-adv-x="1179" d="M1141 43q1 -8 0 -14q0 -77 -62 -90q-7 -2 -14 -2q-38 0 -57 49q-12 33 -33 118l-101 365q-217 12 -550 12q-33 -80 -136 -311l2 -26q0 -58 -30 -113q-27 -51 -82 -51q-14 0 -29 6q-35 16 -35 55q0 18 6 41l60 133l115 266q-20 0 -33 -4q-22 -17 -62 -17q-8 0 -16 1 q-74 16 -74 74q0 55 84 61q31 2 152 2l334 737q-1 7 -2 15q0 28 18 59q8 18 41 43t59 27h8q66 0 70 -68q0 -6 1 -11q0 -48 -32 -95l226 -719q6 0 51 -4q53 -4 53 -62q0 -23 -16.5 -39t-34.5 -16q-14 0 -21 2l93 -330q43 -49 47 -94zM838 588q-68 242 -189 624l-274 -614 q234 0 463 -10zM942 1579q14 -14 14 -33q0 -49 -49 -49q-23 0 -45.5 18.5t-48.5 73.5l-84 107q-27 33 -39 30q-12 -2 -46 -40t-100 -103q-25 -45 -65 -74q-16 -8 -31 -8q-53 0 -53 49q0 20 16 39l160 162q66 72 115 74q61 4 116 -68z" />
<glyph unicode="&#xc3;" horiz-adv-x="1179" d="M1141 43q1 -8 0 -14q0 -77 -62 -90q-7 -2 -14 -2q-38 0 -57 49q-12 33 -33 118l-101 365q-217 12 -550 12q-33 -80 -136 -311l2 -26q0 -58 -30 -113q-27 -51 -82 -51q-14 0 -29 6q-35 16 -35 55q0 18 6 41l60 133l115 266q-20 0 -33 -4q-22 -17 -62 -17q-8 0 -16 1 q-74 16 -74 74q0 55 84 61q31 2 152 2l334 737q-1 7 -2 15q0 28 18 59q8 18 41 43t59 27h8q66 0 70 -68q0 -6 1 -11q0 -48 -32 -95l226 -719q6 0 51 -4q53 -4 53 -62q0 -23 -16.5 -39t-34.5 -16q-14 0 -21 2l93 -330q43 -49 47 -94zM838 588q-68 242 -189 624l-274 -614 q234 0 463 -10zM929 1620q-68 -55 -137 -57q-49 0 -137 39q-57 35 -98 31q-29 -4 -47 -15q-43 -59 -89 -59q-59 0 -59 53q0 31 68 74q61 41 118 45q72 6 154 -37q55 -31 86 -31q6 0 35 8q27 23 51 35q14 8 29 8q49 0 49 -53q0 -25 -23 -41z" />
<glyph unicode="&#xc4;" horiz-adv-x="1179" d="M1141 43q1 -8 0 -14q0 -77 -62 -90q-7 -2 -14 -2q-38 0 -57 49q-12 33 -33 118l-101 365q-217 12 -550 12q-33 -80 -136 -311l2 -26q0 -58 -30 -113q-27 -51 -82 -51q-14 0 -29 6q-35 16 -35 55q0 18 6 41l60 133l115 266q-20 0 -33 -4q-22 -17 -62 -17q-8 0 -16 1 q-74 16 -74 74q0 55 84 61q31 2 152 2l334 737q-1 7 -2 15q0 28 18 59q8 18 41 43t59 27h8q66 0 70 -68q0 -6 1 -11q0 -48 -32 -95l226 -719q6 0 51 -4q53 -4 53 -62q0 -23 -16.5 -39t-34.5 -16q-14 0 -21 2l93 -330q43 -49 47 -94zM838 588q-68 242 -189 624l-274 -614 q234 0 463 -10zM887 1618q-20 -37 -62 -37q-33 0 -60.5 23.5t-27.5 56.5q0 20 11 39q23 37 63 37q33 0 60.5 -23.5t27.5 -56.5q0 -21 -12 -39zM614 1616q-23 -37 -63 -37q-33 0 -59.5 23.5t-26.5 56.5q0 20 10 39q20 37 62 37q35 0 61.5 -24.5t26.5 -57.5q-1 -19 -11 -37z " />
<glyph unicode="&#xc5;" horiz-adv-x="1179" d="M1141 43q1 -8 0 -14q0 -77 -62 -90q-7 -2 -14 -2q-38 0 -57 49q-12 33 -33 118l-101 365q-217 12 -550 12q-33 -80 -136 -311l2 -26q0 -58 -30 -113q-27 -51 -82 -51q-14 0 -29 6q-35 16 -35 55q0 18 6 41l60 133l115 266q-20 0 -33 -4q-22 -17 -62 -17q-8 0 -16 1 q-74 16 -74 74q0 55 84 61q31 2 152 2l334 737q-1 7 -2 15q0 28 18 59q8 18 41 43t59 27h8q66 0 70 -68q0 -6 1 -11q0 -48 -32 -95l226 -719q6 0 51 -4q53 -4 53 -62q0 -23 -16.5 -39t-34.5 -16q-14 0 -21 2l93 -330q43 -49 47 -94zM838 588q-68 242 -189 624l-274 -614 q234 0 463 -10zM866 1741q0 -78 -53 -133.5t-129 -55.5q-78 0 -133 55.5t-55 133.5q0 74 56 127t132 53q74 0 128 -53t54 -127zM809 1741q0 51 -37 87.5t-88 36.5q-53 0 -92 -36.5t-39 -87.5q0 -55 38 -94.5t93 -39.5q53 0 89 39.5t36 94.5z" />
<glyph unicode="&#xc6;" horiz-adv-x="2062" d="M2005 1313q0 -76 -119 -76q-37 0 -110 20q-31 -2 -588 -61q-25 -283 -29 -426l455 49q94 12 143 12q94 0 96 -65q2 -59 -73 -74q-61 -12 -156 10q-256 -29 -467 -49q-4 -190 -22 -458q229 18 665 45q47 23 88 26q100 8 101 -71q0 -51 -68 -66q-12 -2 -111 -6l-680 -45 q14 -76 15 -107q0 -43 -24.5 -77.5t-57.5 -34.5q-59 0 -64 63q-4 35 7 146h-76q-66 0 -66 63q0 55 62 72q47 12 94 8q2 47 14 256h-563l-281 -342q-35 -141 -120 -201q-20 -14 -45 -14q-29 0 -51.5 20.5t-22.5 49.5q0 31 24 63l338 412q-20 -10 -57 -11q-57 0 -57 62 q0 59 55 69q29 4 158 5l641 786q8 12 20 18q25 35 64 35q61 0 57 -104q383 45 590 61q82 6 145 2q76 -6 76 -65zM1067 1176q-4 0 -29 -15l-475 -579q393 0 475 -2v43q-45 12 -45 59q0 53 47 70q7 168 27 424z" />
<glyph unicode="&#xc7;" horiz-adv-x="1243" d="M1237 432q0 -27 -27 -65q-33 -47 -75 -91q-307 -326 -582 -325q-240 0 -381 252q-78 139 -78 375q0 377 238 673q72 90 198 148q119 57 224 57q152 0 256 -84q15 6 28 6q29 0 45 -28q11 -19 12 -35q0 -25 -28 -41q1 -12 1 -23q0 -22 -5 -43q-23 -82 -76 -81q-8 0 -16 1 q-49 10 -49 93q0 37 10 63q-72 53 -180 53q-84 0 -182.5 -49t-151.5 -114q-84 -102 -139 -246q-68 -172 -68 -350q0 -205 68 -324q102 -186 274 -186q207 0 489 282q4 72 56 123q29 29 69 29q31 0 50.5 -21.5t19.5 -48.5zM700 -277q0 -78 -56.5 -127t-133.5 -49 q-68 0 -127 17q-86 23 -86 67q0 25 17 44.5t40 19.5t45 -17l31 -20q29 -8 80 -8q84 0 84 73q0 53 -82 54q-12 0 -35 -2t-35 -2q-49 0 -49 43q0 16 35 61l100 135q18 20 39 21q51 0 51 -51q0 -10 -76 -113q66 0 112 -41.5t46 -104.5z" />
<glyph unicode="&#xc8;" horiz-adv-x="1292" d="M1227 1313q0 -76 -117 -76q-37 0 -111 20q-31 -2 -589 -61q-23 -283 -29 -426q160 16 455 49q96 12 143 12q98 0 98 -68q0 -57 -73 -71q-22 -4 -49 -4q-48 0 -107 14q-256 -29 -469 -49q-2 -190 -21 -458q229 18 664 45q49 23 90 26q9 1 18 1q81 0 80 -72q0 -51 -67 -66 q-12 -2 -109 -6l-682 -45q14 -76 15 -107q0 -43 -24 -77.5t-58 -34.5q-59 0 -64 63v14q0 40 8 132h-75q-66 0 -66 63q0 55 59 72q35 9 71 9l24 -1q8 139 20 412q-47 12 -47 59q0 53 49 70q6 195 23 401q-39 -10 -68 -12q-14 -1 -25 -1q-91 0 -92 68q0 55 84 74q27 4 90 16 q-2 47 22 84t62 37q59 0 58 -104q383 45 588 61q50 4 92 4q28 0 53 -2q76 -6 76 -65zM864 1561q20 -16 21 -39q0 -23 -17.5 -41t-42.5 -18q-31 0 -82 57q-8 8 -143 113q-88 35 -117 67q-18 18 -18 41q0 27 18.5 44.5t42.5 17.5q18 0 35 -9z" />
<glyph unicode="&#xc9;" horiz-adv-x="1292" d="M1227 1313q0 -76 -117 -76q-37 0 -111 20q-31 -2 -589 -61q-23 -283 -29 -426q160 16 455 49q96 12 143 12q98 0 98 -68q0 -57 -73 -71q-22 -4 -49 -4q-48 0 -107 14q-256 -29 -469 -49q-2 -190 -21 -458q229 18 664 45q49 23 90 26q9 1 18 1q81 0 80 -72q0 -51 -67 -66 q-12 -2 -109 -6l-682 -45q14 -76 15 -107q0 -43 -24 -77.5t-58 -34.5q-59 0 -64 63v14q0 40 8 132h-75q-66 0 -66 63q0 55 59 72q35 9 71 9l24 -1q8 139 20 412q-47 12 -47 59q0 53 49 70q6 195 23 401q-39 -10 -68 -12q-14 -1 -25 -1q-91 0 -92 68q0 55 84 74q27 4 90 16 q-2 47 22 84t62 37q59 0 58 -104q383 45 588 61q50 4 92 4q28 0 53 -2q76 -6 76 -65zM813 1643q-25 -18 -79 -62.5t-81 -62.5q-16 -25 -51 -47q-12 -6 -25 -6q-51 0 -51 51q0 25 21 41l305 233q14 8 32 8q66 0 66 -51q0 -25 -26.5 -51t-110.5 -53z" />
<glyph unicode="&#xca;" horiz-adv-x="1292" d="M1227 1313q0 -76 -117 -76q-37 0 -111 20q-31 -2 -589 -61q-23 -283 -29 -426q160 16 455 49q96 12 143 12q98 0 98 -68q0 -57 -73 -71q-22 -4 -49 -4q-48 0 -107 14q-256 -29 -469 -49q-2 -190 -21 -458q229 18 664 45q49 23 90 26q9 1 18 1q81 0 80 -72q0 -51 -67 -66 q-12 -2 -109 -6l-682 -45q14 -76 15 -107q0 -43 -24 -77.5t-58 -34.5q-59 0 -64 63v14q0 40 8 132h-75q-66 0 -66 63q0 55 59 72q35 9 71 9l24 -1q8 139 20 412q-47 12 -47 59q0 53 49 70q6 195 23 401q-39 -10 -68 -12q-14 -1 -25 -1q-91 0 -92 68q0 55 84 74q27 4 90 16 q-2 47 22 84t62 37q59 0 58 -104q383 45 588 61q50 4 92 4q28 0 53 -2q76 -6 76 -65zM965 1569q14 -14 14 -33q0 -49 -49 -49q-23 0 -45.5 18.5t-48.5 73.5l-84 107q-27 33 -39 30q-12 -2 -46 -40t-100 -103q-25 -45 -65 -74q-16 -8 -31 -8q-53 0 -53 49q0 20 16 39l160 162 q66 72 115 74q61 4 116 -68z" />
<glyph unicode="&#xcb;" horiz-adv-x="1292" d="M1227 1313q0 -76 -117 -76q-37 0 -111 20q-31 -2 -589 -61q-23 -283 -29 -426q160 16 455 49q96 12 143 12q98 0 98 -68q0 -57 -73 -71q-22 -4 -49 -4q-48 0 -107 14q-256 -29 -469 -49q-2 -190 -21 -458q229 18 664 45q49 23 90 26q9 1 18 1q81 0 80 -72q0 -51 -67 -66 q-12 -2 -109 -6l-682 -45q14 -76 15 -107q0 -43 -24 -77.5t-58 -34.5q-59 0 -64 63v14q0 40 8 132h-75q-66 0 -66 63q0 55 59 72q35 9 71 9l24 -1q8 139 20 412q-47 12 -47 59q0 53 49 70q6 195 23 401q-39 -10 -68 -12q-14 -1 -25 -1q-91 0 -92 68q0 55 84 74q27 4 90 16 q-2 47 22 84t62 37q59 0 58 -104q383 45 588 61q50 4 92 4q28 0 53 -2q76 -6 76 -65zM897 1544q-20 -37 -62 -37q-33 0 -60.5 23.5t-27.5 56.5q0 20 11 39q23 37 63 37q33 0 60.5 -23.5t27.5 -56.5q0 -21 -12 -39zM624 1542q-23 -37 -63 -37q-33 0 -59.5 23.5t-26.5 56.5 q0 20 10 39q20 37 62 37q35 0 61.5 -24.5t26.5 -57.5q-1 -19 -11 -37z" />
<glyph unicode="&#xcc;" horiz-adv-x="600" d="M555 1368q0 -41 -33 -55q-22 -15 -46 -15q-16 0 -34 7h-20q-14 -2 -23 -2l-34 -531l-48 -668q63 3 98 3q17 0 27 -1q51 -4 52 -57q0 -53 -60 -65q-18 -3 -33 -4q-23 0 -39 8h-26q-23 -2 -33 -2q-14 -27 -53 -27q-27 0 -43 16q-25 0 -35 -2q-37 -4 -68 -4q-25 0 -45 15 q-27 18 -26 43q0 45 55 65q20 8 41 8l41 -8h14q8 2 15 2l49 686l35 508q-4 0 -62 -4l-42 -6q-28 -4 -38 -4q-63 0 -67 51q-1 6 -1 11q0 52 56 63q26 6 50 5q19 0 36 -3l68 8q16 57 61 61q2 0 4 1q52 0 60 -52q70 6 90 6q57 -4 57 -57zM524 1630q20 -16 21 -39 q0 -23 -17.5 -41t-42.5 -18q-31 0 -82 57q-8 8 -143 113q-88 35 -117 67q-18 18 -18 41q0 27 18.5 44.5t42.5 17.5q18 0 35 -9z" />
<glyph unicode="&#xcd;" horiz-adv-x="600" d="M555 1368q0 -41 -33 -55q-22 -15 -46 -15q-16 0 -34 7h-20q-14 -2 -23 -2l-34 -531l-48 -668q63 3 98 3q17 0 27 -1q51 -4 52 -57q0 -53 -60 -65q-18 -3 -33 -4q-23 0 -39 8h-26q-23 -2 -33 -2q-14 -27 -53 -27q-27 0 -43 16q-25 0 -35 -2q-37 -4 -68 -4q-25 0 -45 15 q-27 18 -26 43q0 45 55 65q20 8 41 8l41 -8h14q8 2 15 2l49 686l35 508q-4 0 -62 -4l-42 -6q-28 -4 -38 -4q-63 0 -67 51q-1 6 -1 11q0 52 56 63q26 6 50 5q19 0 36 -3l68 8q16 57 61 61q2 0 4 1q52 0 60 -52q70 6 90 6q57 -4 57 -57zM471 1717q-25 -18 -79 -62.5t-81 -62.5 q-16 -25 -51 -47q-12 -6 -25 -6q-51 0 -51 51q0 25 21 41l305 233q14 8 32 8q66 0 66 -51q0 -25 -26.5 -51t-110.5 -53z" />
<glyph unicode="&#xce;" horiz-adv-x="600" d="M555 1368q0 -41 -33 -55q-22 -15 -46 -15q-16 0 -34 7h-20q-14 -2 -23 -2l-34 -531l-48 -668q63 3 98 3q17 0 27 -1q51 -4 52 -57q0 -53 -60 -65q-18 -3 -33 -4q-23 0 -39 8h-26q-23 -2 -33 -2q-14 -27 -53 -27q-27 0 -43 16q-25 0 -35 -2q-37 -4 -68 -4q-25 0 -45 15 q-27 18 -26 43q0 45 55 65q20 8 41 8l41 -8h14q8 2 15 2l49 686l35 508q-4 0 -62 -4l-42 -6q-28 -4 -38 -4q-63 0 -67 51q-1 6 -1 11q0 52 56 63q26 6 50 5q19 0 36 -3l68 8q16 57 61 61q2 0 4 1q52 0 60 -52q70 6 90 6q57 -4 57 -57zM609 1598q14 -14 14 -33q0 -49 -49 -49 q-23 0 -45.5 18.5t-48.5 73.5l-84 107q-27 33 -39 30q-12 -2 -46 -40t-100 -103q-25 -45 -65 -74q-16 -8 -31 -8q-53 0 -53 49q0 20 16 39l160 162q66 72 115 74q61 4 116 -68z" />
<glyph unicode="&#xcf;" horiz-adv-x="600" d="M555 1368q0 -41 -33 -55q-22 -15 -46 -15q-16 0 -34 7h-20q-14 -2 -23 -2l-34 -531l-48 -668q63 3 98 3q17 0 27 -1q51 -4 52 -57q0 -53 -60 -65q-18 -3 -33 -4q-23 0 -39 8h-26q-23 -2 -33 -2q-14 -27 -53 -27q-27 0 -43 16q-25 0 -35 -2q-37 -4 -68 -4q-25 0 -45 15 q-27 18 -26 43q0 45 55 65q20 8 41 8l41 -8h14q8 2 15 2l49 686l35 508q-4 0 -62 -4l-42 -6q-28 -4 -38 -4q-63 0 -67 51q-1 6 -1 11q0 52 56 63q26 6 50 5q19 0 36 -3l68 8q16 57 61 61q2 0 4 1q52 0 60 -52q70 6 90 6q57 -4 57 -57zM565 1591q-20 -37 -62 -37 q-33 0 -60.5 23.5t-27.5 56.5q0 20 11 39q23 37 63 37q33 0 60.5 -23.5t27.5 -56.5q0 -21 -12 -39zM292 1589q-23 -37 -63 -37q-33 0 -59.5 23.5t-26.5 56.5q0 20 10 39q20 37 62 37q35 0 61.5 -24.5t26.5 -57.5q-1 -19 -11 -37z" />
<glyph unicode="&#xd1;" horiz-adv-x="1470" d="M1321 1292q0 -63 -27 -145q-4 -154 -8 -492v-67q0 -239 12 -512q20 -74 21 -109q4 -14 4 -26q0 -34 -35 -47q-18 -18 -45 -19q-37 0 -49 33q-31 18 -66 86q-242 217 -503 551q-178 225 -332 485q8 -158 8 -364q0 -53 -16 -471q-6 -137 -17 -205q-10 -59 -67 -60 q-33 0 -56 33q-19 28 -19 73q0 8 1 17q4 74 41 156q16 215 16 457q0 193 -16 518q-23 57 -33 125q-8 27 -8 45q0 55 59 55q12 8 27 8q47 0 57 -69q27 -53 39 -117q170 -297 412 -617q219 -289 457 -508q-10 354 -11 549l11 504q0 49 4 123q6 117 61 117q39 0 62 -39 q16 -31 16 -68zM999 1546q-68 -55 -137 -57q-49 0 -137 39q-57 35 -98 31q-29 -4 -47 -15q-43 -59 -89 -59q-59 0 -59 53q0 31 68 74q61 41 118 45q72 6 154 -37q55 -31 86 -31q6 0 35 8q27 23 51 35q14 8 29 8q49 0 49 -53q0 -25 -23 -41z" />
<glyph unicode="&#xd2;" horiz-adv-x="1447" d="M1427 965q0 -266 -206 -537q-158 -207 -379 -352q-203 -133 -328 -133q-162 0 -291 194.5t-129 480.5q0 244 105 453q82 168 145 215q28 21 58 21q17 0 34 -7q6 0 25 -2h24q246 162 461 162q221 0 342 -129q139 -147 139 -366zM1309 965q0 178 -113 290q-86 86 -248 86 q-188 0 -401 -147q-80 -53 -223 -174q-12 -12 -27 -14q-86 -184 -86 -390q0 -244 117 -417q90 -137 186 -138q76 0 258 113q205 127 358 330q179 240 179 461zM946 1655q20 -16 21 -39q0 -23 -17.5 -41t-42.5 -18q-31 0 -82 57q-8 8 -143 113q-88 35 -117 67q-18 18 -18 41 q0 27 18.5 44.5t42.5 17.5q18 0 35 -9z" />
<glyph unicode="&#xd3;" horiz-adv-x="1447" d="M1427 965q0 -266 -206 -537q-158 -207 -379 -352q-203 -133 -328 -133q-162 0 -291 194.5t-129 480.5q0 244 105 453q82 168 145 215q28 21 58 21q17 0 34 -7q6 0 25 -2h24q246 162 461 162q221 0 342 -129q139 -147 139 -366zM1309 965q0 178 -113 290q-86 86 -248 86 q-188 0 -401 -147q-80 -53 -223 -174q-12 -12 -27 -14q-86 -184 -86 -390q0 -244 117 -417q90 -137 186 -138q76 0 258 113q205 127 358 330q179 240 179 461zM987 1717q-25 -18 -79 -62.5t-81 -62.5q-16 -25 -51 -47q-12 -6 -25 -6q-51 0 -51 51q0 25 21 41l305 233 q14 8 32 8q66 0 66 -51q0 -25 -26.5 -51t-110.5 -53z" />
<glyph unicode="&#xd4;" horiz-adv-x="1447" d="M1427 965q0 -266 -206 -537q-158 -207 -379 -352q-203 -133 -328 -133q-162 0 -291 194.5t-129 480.5q0 244 105 453q82 168 145 215q28 21 58 21q17 0 34 -7q6 0 25 -2h24q246 162 461 162q221 0 342 -129q139 -147 139 -366zM1309 965q0 178 -113 290q-86 86 -248 86 q-188 0 -401 -147q-80 -53 -223 -174q-12 -12 -27 -14q-86 -184 -86 -390q0 -244 117 -417q90 -137 186 -138q76 0 258 113q205 127 358 330q179 240 179 461zM1170 1626q14 -14 14 -33q0 -49 -49 -49q-23 0 -45.5 18.5t-48.5 73.5l-84 107q-27 33 -39 30q-12 -2 -46 -40 t-100 -103q-25 -45 -65 -74q-16 -8 -31 -8q-53 0 -53 49q0 20 16 39l160 162q66 72 115 74q61 4 116 -68z" />
<glyph unicode="&#xd5;" horiz-adv-x="1447" d="M1427 965q0 -266 -206 -537q-158 -207 -379 -352q-203 -133 -328 -133q-162 0 -291 194.5t-129 480.5q0 244 105 453q82 168 145 215q28 21 58 21q17 0 34 -7q6 0 25 -2h24q246 162 461 162q221 0 342 -129q139 -147 139 -366zM1309 965q0 178 -113 290q-86 86 -248 86 q-188 0 -401 -147q-80 -53 -223 -174q-12 -12 -27 -14q-86 -184 -86 -390q0 -244 117 -417q90 -137 186 -138q76 0 258 113q205 127 358 330q179 240 179 461zM1106 1628q-68 -55 -137 -57q-49 0 -137 39q-57 35 -98 31q-29 -4 -47 -15q-43 -59 -89 -59q-59 0 -59 53 q0 31 68 74q61 41 118 45q72 6 154 -37q55 -31 86 -31q6 0 35 8q27 23 51 35q14 8 29 8q49 0 49 -53q0 -25 -23 -41z" />
<glyph unicode="&#xd6;" horiz-adv-x="1447" d="M1427 965q0 -266 -206 -537q-158 -207 -379 -352q-203 -133 -328 -133q-162 0 -291 194.5t-129 480.5q0 244 105 453q82 168 145 215q28 21 58 21q17 0 34 -7q6 0 25 -2h24q246 162 461 162q221 0 342 -129q139 -147 139 -366zM1309 965q0 178 -113 290q-86 86 -248 86 q-188 0 -401 -147q-80 -53 -223 -174q-12 -12 -27 -14q-86 -184 -86 -390q0 -244 117 -417q90 -137 186 -138q76 0 258 113q205 127 358 330q179 240 179 461zM1022 1616q-20 -37 -62 -37q-33 0 -60.5 23.5t-27.5 56.5q0 20 11 39q23 37 63 37q33 0 60.5 -23.5t27.5 -56.5 q0 -21 -12 -39zM749 1614q-23 -37 -63 -37q-33 0 -59.5 23.5t-26.5 56.5q0 20 10 39q20 37 62 37q35 0 61.5 -24.5t26.5 -57.5q-1 -19 -11 -37z" />
<glyph unicode="&#xd7;" horiz-adv-x="1073" d="M952 817q-33 -53 -102 -94l-250 -246l188 -203q25 0 63 -35.5t73 -95.5q8 -14 8 -28q0 -27 -18.5 -46.5t-43.5 -19.5q-16 0 -30 10q-63 41 -152 150l-170 186l-248 -245q-63 -115 -116 -115q-27 0 -46.5 19.5t-19.5 45.5q0 25 18 43l334 336l-235 242q-109 37 -109 100 q0 27 25 51q35 35 84 7q10 -6 81.5 -74t235.5 -244l328 330q20 18 43 18q27 0 46 -20.5t19 -44.5q0 -15 -6 -27z" />
<glyph unicode="&#xd8;" horiz-adv-x="1447" d="M1325 1288q102 -129 102 -323q0 -266 -206 -537q-158 -207 -379 -352q-203 -133 -328 -133q-141 0 -252 141q-68 -139 -117 -174q-14 -10 -32 -10q-25 0 -45.5 19.5t-20.5 45.5q0 41 150 219q-102 190 -103 434q0 244 105 453q82 168 145 215q43 33 92 14q6 0 25 -2h24 q246 162 461 162q172 0 297 -90q70 158 135 158q55 0 56 -60q0 -43 -109 -180zM1180 1270q-88 72 -232 71q-188 0 -401 -147q-80 -53 -223 -174q-12 -12 -27 -14q-86 -184 -86 -390q0 -180 70 -333zM1309 965q0 133 -62 227q-135 -160 -450 -502l-463 -502q88 -127 180 -127 q76 0 258 113q205 127 358 330q179 240 179 461z" />
<glyph unicode="&#xd9;" horiz-adv-x="1398" d="M1274 1286q0 -123 -39 -309q-4 -90 -8 -268q-3 -88 -3 -204q0 -154 5 -358q31 -55 33 -90q1 -10 0 -19q0 -76 -62 -83h-7q-77 0 -81 182q-7 261 -6 416v72q-121 -250 -397 -512q-162 -154 -285 -154q-78 0 -140.5 67.5t-88.5 163.5q-47 182 -48 419v38q4 174 35 518 q8 113 19.5 177.5t64.5 64.5q33 0 55 -31q20 -28 19 -63q0 -64 -43 -164q-27 -272 -31 -500v-41q0 -235 43 -377q47 -154 113 -153q76 0 205 121q279 260 407 549q51 117 80 239l12 266q6 111 82 111q66 0 66 -78zM901 1571q20 -16 21 -39q0 -23 -17.5 -41t-42.5 -18 q-31 0 -82 57q-8 8 -143 113q-88 35 -117 67q-18 18 -18 41q0 27 18.5 44.5t42.5 17.5q18 0 35 -9z" />
<glyph unicode="&#xda;" horiz-adv-x="1398" d="M1274 1286q0 -123 -39 -309q-4 -90 -8 -268q-3 -88 -3 -204q0 -154 5 -358q31 -55 33 -90q1 -10 0 -19q0 -76 -62 -83h-7q-77 0 -81 182q-7 261 -6 416v72q-121 -250 -397 -512q-162 -154 -285 -154q-78 0 -140.5 67.5t-88.5 163.5q-47 182 -48 419v38q4 174 35 518 q8 113 19.5 177.5t64.5 64.5q33 0 55 -31q20 -28 19 -63q0 -64 -43 -164q-27 -272 -31 -500v-41q0 -235 43 -377q47 -154 113 -153q76 0 205 121q279 260 407 549q51 117 80 239l12 266q6 111 82 111q66 0 66 -78zM940 1655q-25 -18 -79 -62.5t-81 -62.5q-16 -25 -51 -47 q-12 -6 -25 -6q-51 0 -51 51q0 25 21 41l305 233q14 8 32 8q66 0 66 -51q0 -25 -26.5 -51t-110.5 -53z" />
<glyph unicode="&#xdb;" horiz-adv-x="1398" d="M1274 1286q0 -123 -39 -309q-4 -90 -8 -268q-3 -88 -3 -204q0 -154 5 -358q31 -55 33 -90q1 -10 0 -19q0 -76 -62 -83h-7q-77 0 -81 182q-7 261 -6 416v72q-121 -250 -397 -512q-162 -154 -285 -154q-78 0 -140.5 67.5t-88.5 163.5q-47 182 -48 419v38q4 174 35 518 q8 113 19.5 177.5t64.5 64.5q33 0 55 -31q20 -28 19 -63q0 -64 -43 -164q-27 -272 -31 -500v-41q0 -235 43 -377q47 -154 113 -153q76 0 205 121q279 260 407 549q51 117 80 239l12 266q6 111 82 111q66 0 66 -78zM1053 1555q14 -14 14 -33q0 -49 -49 -49q-23 0 -45.5 18.5 t-48.5 73.5l-84 107q-27 33 -39 30q-12 -2 -46 -40t-100 -103q-25 -45 -65 -74q-16 -8 -31 -8q-53 0 -53 49q0 20 16 39l160 162q66 72 115 74q61 4 116 -68z" />
<glyph unicode="&#xdc;" horiz-adv-x="1398" d="M1274 1286q0 -123 -39 -309q-4 -90 -8 -268q-3 -88 -3 -204q0 -154 5 -358q31 -55 33 -90q1 -10 0 -19q0 -76 -62 -83h-7q-77 0 -81 182q-7 261 -6 416v72q-121 -250 -397 -512q-162 -154 -285 -154q-78 0 -140.5 67.5t-88.5 163.5q-47 182 -48 419v38q4 174 35 518 q8 113 19.5 177.5t64.5 64.5q33 0 55 -31q20 -28 19 -63q0 -64 -43 -164q-27 -272 -31 -500v-41q0 -235 43 -377q47 -154 113 -153q76 0 205 121q279 260 407 549q51 117 80 239l12 266q6 111 82 111q66 0 66 -78zM942 1489q-20 -37 -62 -37q-33 0 -60.5 23.5t-27.5 56.5 q0 20 11 39q23 37 63 37q33 0 60.5 -23.5t27.5 -56.5q0 -21 -12 -39zM669 1487q-23 -37 -63 -37q-33 0 -59.5 23.5t-26.5 56.5q0 20 10 39q20 37 62 37q35 0 61.5 -24.5t26.5 -57.5q-1 -19 -11 -37z" />
<glyph unicode="&#xdd;" horiz-adv-x="1208" d="M1413 1790q-25 -18 -79 -62.5t-81 -62.5q-16 -25 -51 -47q-12 -6 -25 -6q-51 0 -51 51q0 25 21 41l305 233q14 8 32 8q66 0 66 -51q0 -25 -26.5 -51t-110.5 -53zM1247 1430q0 -31 -28 -58q-37 -29 -101 -88q-297 -305 -506 -666q3 -41 3 -74q0 -17 -1 -32l-14 -324 q15 -70 15 -124q0 -12 -1 -23q-6 -102 -73 -102q-63 0 -64 94q0 45 6 129q-14 29 0 61q4 117 15 291v57q2 0 -5.5 18.5t-7.5 26.5l-385 635q-23 14 -30 47l-41 68q-12 23 -13 41q0 27 27 47q20 14 41 14q33 0 63.5 -35.5t42.5 -101.5l359 -588q201 334 483 621q27 53 78 98 q29 27 72 27q31 0 48 -18t17 -41z" />
<glyph unicode="&#xdf;" horiz-adv-x="1105" d="M1083 422q-6 -111 -96 -215q-188 -215 -401 -266q-53 -12 -101 -13q-111 0 -171 66.5t-60 175.5q0 133 82 268q20 33 55 33q66 0 66 -78q0 -88 -78 -147q-16 -78 0 -129q23 -72 113 -72q31 0 67 8q178 41 342 232q66 76 70 141q4 82 -88 130t-230 75q-106 18 -213 39 q-141 31 -141 145q0 59 57 117q176 178 238 252q115 137 131 223q6 29 6 55q0 70 -32.5 111t-86.5 41q-86 0 -157 -88q-80 -98 -115 -279q-63 -324 -102 -678q-29 -268 -48 -528q31 -133 0 -193q-23 -45 -65 -45q-63 0 -59 70q16 229 59 711q12 109 43 334q-18 0 -41 4 q-55 4 -55 59q0 59 65 53q25 -2 47 -2q12 84 41 236q45 231 166 356q102 104 221 105q98 0 164 -68q70 -74 70 -193q0 -39 -8 -82q-29 -150 -400 -534q-29 -29 -20 -47q6 -14 47 -23l227 -41q141 -31 244 -82q155 -79 147 -237z" />
<glyph unicode="&#xe0;" horiz-adv-x="995" d="M899 391q0 -18 -31 -61q-2 -27 -14 -162q14 -53 14 -98q0 -94 -67 -95q-29 0 -49 19q-25 21 -25 52q0 18 10 126q-256 -248 -477 -248q-78 0 -129 41q-70 55 -70 168v19q12 219 199 356q172 123 399 123q57 0 113 -8q3 63 3 110q0 115 -17 148q-10 14 -33 14 q-90 0 -291 -131q-74 -94 -121 -94q-76 0 -76 67q0 36 33 60q27 16 78 51q16 23 41 26q227 137 352 138q57 0 97.5 -42t46.5 -100q6 -53 6 -135q0 -118 -12 -295q20 -12 20 -49zM766 504q-53 8 -107 8q-145 0 -266 -59q-199 -100 -215 -308v-14q0 -51 27 -74q18 -18 55 -18 q115 0 277 121q137 100 217 213q8 80 12 131zM790 1223q20 -16 21 -39q0 -23 -17.5 -41t-42.5 -18q-31 0 -82 57q-8 8 -143 113q-88 35 -117 67q-18 18 -18 41q0 27 18.5 44.5t42.5 17.5q18 0 35 -9z" />
<glyph unicode="&#xe1;" horiz-adv-x="995" d="M899 391q0 -18 -31 -61q-2 -27 -14 -162q14 -53 14 -98q0 -94 -67 -95q-29 0 -49 19q-25 21 -25 52q0 18 10 126q-256 -248 -477 -248q-78 0 -129 41q-70 55 -70 168v19q12 219 199 356q172 123 399 123q57 0 113 -8q3 63 3 110q0 115 -17 148q-10 14 -33 14 q-90 0 -291 -131q-74 -94 -121 -94q-76 0 -76 67q0 36 33 60q27 16 78 51q16 23 41 26q227 137 352 138q57 0 97.5 -42t46.5 -100q6 -53 6 -135q0 -118 -12 -295q20 -12 20 -49zM766 504q-53 8 -107 8q-145 0 -266 -59q-199 -100 -215 -308v-14q0 -51 27 -74q18 -18 55 -18 q115 0 277 121q137 100 217 213q8 80 12 131zM740 1289q-25 -18 -79 -62.5t-81 -62.5q-16 -25 -51 -47q-12 -6 -25 -6q-51 0 -51 51q0 25 21 41l305 233q14 8 32 8q66 0 66 -51q0 -25 -26.5 -51t-110.5 -53z" />
<glyph unicode="&#xe2;" horiz-adv-x="995" d="M899 391q0 -18 -31 -61q-2 -27 -14 -162q14 -53 14 -98q0 -94 -67 -95q-29 0 -49 19q-25 21 -25 52q0 18 10 126q-256 -248 -477 -248q-78 0 -129 41q-70 55 -70 168v19q12 219 199 356q172 123 399 123q57 0 113 -8q3 63 3 110q0 115 -17 148q-10 14 -33 14 q-90 0 -291 -131q-74 -94 -121 -94q-76 0 -76 67q0 36 33 60q27 16 78 51q16 23 41 26q227 137 352 138q57 0 97.5 -42t46.5 -100q6 -53 6 -135q0 -118 -12 -295q20 -12 20 -49zM766 504q-53 8 -107 8q-145 0 -266 -59q-199 -100 -215 -308v-14q0 -51 27 -74q18 -18 55 -18 q115 0 277 121q137 100 217 213q8 80 12 131zM885 1192q14 -14 14 -33q0 -49 -49 -49q-23 0 -45.5 18.5t-48.5 73.5l-84 107q-27 33 -39 30q-12 -2 -46 -40t-100 -103q-25 -45 -65 -74q-16 -8 -31 -8q-53 0 -53 49q0 20 16 39l160 162q66 72 115 74q61 4 116 -68z" />
<glyph unicode="&#xe3;" horiz-adv-x="995" d="M899 391q0 -18 -31 -61q-2 -27 -14 -162q14 -53 14 -98q0 -94 -67 -95q-29 0 -49 19q-25 21 -25 52q0 18 10 126q-256 -248 -477 -248q-78 0 -129 41q-70 55 -70 168v19q12 219 199 356q172 123 399 123q57 0 113 -8q3 63 3 110q0 115 -17 148q-10 14 -33 14 q-90 0 -291 -131q-74 -94 -121 -94q-76 0 -76 67q0 36 33 60q27 16 78 51q16 23 41 26q227 137 352 138q57 0 97.5 -42t46.5 -100q6 -53 6 -135q0 -118 -12 -295q20 -12 20 -49zM766 504q-53 8 -107 8q-145 0 -266 -59q-199 -100 -215 -308v-14q0 -51 27 -74q18 -18 55 -18 q115 0 277 121q137 100 217 213q8 80 12 131zM886 1212q-68 -55 -137 -57q-49 0 -137 39q-57 35 -98 31q-29 -4 -47 -15q-43 -59 -89 -59q-59 0 -59 53q0 31 68 74q61 41 118 45q72 6 154 -37q55 -31 86 -31q6 0 35 8q27 23 51 35q14 8 29 8q49 0 49 -53q0 -25 -23 -41z" />
<glyph unicode="&#xe4;" horiz-adv-x="995" d="M899 391q0 -18 -31 -61q-2 -27 -14 -162q14 -53 14 -98q0 -94 -67 -95q-29 0 -49 19q-25 21 -25 52q0 18 10 126q-256 -248 -477 -248q-78 0 -129 41q-70 55 -70 168v19q12 219 199 356q172 123 399 123q57 0 113 -8q3 63 3 110q0 115 -17 148q-10 14 -33 14 q-90 0 -291 -131q-74 -94 -121 -94q-76 0 -76 67q0 36 33 60q27 16 78 51q16 23 41 26q227 137 352 138q57 0 97.5 -42t46.5 -100q6 -53 6 -135q0 -118 -12 -295q20 -12 20 -49zM766 504q-53 8 -107 8q-145 0 -266 -59q-199 -100 -215 -308v-14q0 -51 27 -74q18 -18 55 -18 q115 0 277 121q137 100 217 213q8 80 12 131zM856 1184q-20 -37 -62 -37q-33 0 -60.5 23.5t-27.5 56.5q0 20 11 39q23 37 63 37q33 0 60.5 -23.5t27.5 -56.5q0 -21 -12 -39zM583 1182q-23 -37 -63 -37q-33 0 -59.5 23.5t-26.5 56.5q0 20 10 39q20 37 62 37q35 0 61.5 -24.5 t26.5 -57.5q-1 -19 -11 -37z" />
<glyph unicode="&#xe5;" horiz-adv-x="995" d="M899 391q0 -18 -31 -61q-2 -27 -14 -162q14 -53 14 -98q0 -94 -67 -95q-29 0 -49 19q-25 21 -25 52q0 18 10 126q-256 -248 -477 -248q-78 0 -129 41q-70 55 -70 168v19q12 219 199 356q172 123 399 123q57 0 113 -8q3 63 3 110q0 115 -17 148q-10 14 -33 14 q-90 0 -291 -131q-74 -94 -121 -94q-76 0 -76 67q0 36 33 60q27 16 78 51q16 23 41 26q227 137 352 138q57 0 97.5 -42t46.5 -100q6 -53 6 -135q0 -118 -12 -295q20 -12 20 -49zM766 504q-53 8 -107 8q-145 0 -266 -59q-199 -100 -215 -308v-14q0 -51 27 -74q18 -18 55 -18 q115 0 277 121q137 100 217 213q8 80 12 131zM843 1309q0 -78 -53 -133.5t-129 -55.5q-78 0 -133 55.5t-55 133.5q0 74 56 127t132 53q74 0 128 -53t54 -127zM786 1309q0 51 -37 87.5t-88 36.5q-53 0 -92 -36.5t-39 -87.5q0 -55 38 -94.5t93 -39.5q53 0 89 39.5t36 94.5z " />
<glyph unicode="&#xe6;" horiz-adv-x="1699" d="M1642 367q-12 -29 -86 -99q-72 -115 -184 -190q-123 -82 -244 -82q-166 0 -264 129q4 -33 4 -55q0 -94 -67 -95q-29 0 -49 19q-27 23 -25 57q4 57 10 121q-256 -248 -477 -248q-78 0 -129 41q-76 59 -70 187q12 219 199 356q172 123 399 123q57 0 113 -8q10 213 -14 258 q-10 14 -33 14q-90 0 -291 -131q-74 -94 -121 -94q-70 0 -75 59q-4 41 32 68q27 16 78 51q16 23 41 26q227 137 352 138q57 0 97.5 -42t46.5 -100q8 -66 8 -112q70 125 168 198.5t194 73.5q180 0 271 -180q23 -43 51 -121q8 -33 8 -63q0 -76 -55 -76q-10 0 -21 2l-114 -23 q-221 -41 -482 -127q-2 -29 -2 -55q0 -125 60.5 -199.5t158.5 -74.5q164 0 314 202q8 31 31 43q16 25 51 86q16 29 49 29q27 0 49.5 -21.5t22.5 -54.5q-1 -14 -5 -30zM1434 719q-10 33 -17 86q-74 106 -160 106q-88 0 -181 -98t-134 -235q291 86 428 110q19 13 64 31z M766 504q-53 8 -107 8q-145 0 -266 -59q-199 -100 -215 -308q-4 -61 27 -88q18 -18 55 -18q115 0 277 121q137 100 217 213q8 80 12 131z" />
<glyph unicode="&#xe7;" d="M895 367q-4 -33 -45 -82q-111 -137 -195 -203q-131 -100 -266 -100q-127 0 -209 86t-82 243q0 197 123 447q57 119 145.5 186.5t174.5 67.5q106 0 172 -70q18 18 43 19q59 0 59 -58q0 -12 -5 -25.5t-3 -62.5q1 -11 1 -20q0 -84 -65 -84q-86 0 -86 100q0 12 -4 18 q-47 66 -112 66q-123 0 -215 -190q-109 -223 -109 -394q0 -213 172 -213q174 0 365 254q4 20 20 70q18 37 60 37q31 0 48 -30q14 -24 14 -50q0 -6 -1 -12zM559 -236q0 -78 -56.5 -127t-133.5 -49q-68 0 -127 17q-86 23 -86 67q0 25 17 44.5t40 19.5t45 -17l31 -20 q29 -8 80 -8q84 0 84 73q0 53 -82 54q-12 0 -35 -2t-35 -2q-49 0 -49 43q0 16 35 61l100 135q18 20 39 21q51 0 51 -51q0 -10 -76 -113q66 0 112 -41.5t46 -104.5z" />
<glyph unicode="&#xe8;" horiz-adv-x="1058" d="M1010 367q-10 -29 -84 -99q-72 -115 -185 -190q-123 -82 -243 -82q-166 0 -262 125q-81 105 -81 244q0 16 1 32q-47 -12 -66 -16q-7 -1 -13 -1q-48 0 -48 56q0 37 24 64q37 35 125 45q51 209 180 347t267 138q180 0 270 -180q23 -43 51 -121q8 -33 8 -63q0 -76 -55 -76 q-10 0 -20 2l-115 -23q-221 -41 -481 -127q-2 -29 -2 -55q0 -125 60 -199.5t159 -74.5q164 0 313 202q8 31 31 43q16 25 51 86q16 29 47 29q29 0 51.5 -21.5t22.5 -54.5q0 -14 -6 -30zM803 719q-10 33 -17 86q-74 106 -159 106q-90 0 -182.5 -98t-133.5 -235q291 86 428 110 q19 13 64 31zM780 1227q20 -16 21 -39q0 -23 -17.5 -41t-42.5 -18q-31 0 -82 57q-8 8 -143 113q-88 35 -117 67q-18 18 -18 41q0 27 18.5 44.5t42.5 17.5q18 0 35 -9z" />
<glyph unicode="&#xe9;" horiz-adv-x="1058" d="M1010 367q-10 -29 -84 -99q-72 -115 -185 -190q-123 -82 -243 -82q-166 0 -262 125q-81 105 -81 244q0 16 1 32q-47 -12 -66 -16q-7 -1 -13 -1q-48 0 -48 56q0 37 24 64q37 35 125 45q51 209 180 347t267 138q180 0 270 -180q23 -43 51 -121q8 -33 8 -63q0 -76 -55 -76 q-10 0 -20 2l-115 -23q-221 -41 -481 -127q-2 -29 -2 -55q0 -125 60 -199.5t159 -74.5q164 0 313 202q8 31 31 43q16 25 51 86q16 29 47 29q29 0 51.5 -21.5t22.5 -54.5q0 -14 -6 -30zM803 719q-10 33 -17 86q-74 106 -159 106q-90 0 -182.5 -98t-133.5 -235q291 86 428 110 q19 13 64 31zM705 1315q-25 -18 -79 -62.5t-81 -62.5q-16 -25 -51 -47q-12 -6 -25 -6q-51 0 -51 51q0 25 21 41l305 233q14 8 32 8q66 0 66 -51q0 -25 -26.5 -51t-110.5 -53z" />
<glyph unicode="&#xea;" horiz-adv-x="1058" d="M1010 367q-10 -29 -84 -99q-72 -115 -185 -190q-123 -82 -243 -82q-166 0 -262 125q-81 105 -81 244q0 16 1 32q-47 -12 -66 -16q-7 -1 -13 -1q-48 0 -48 56q0 37 24 64q37 35 125 45q51 209 180 347t267 138q180 0 270 -180q23 -43 51 -121q8 -33 8 -63q0 -76 -55 -76 q-10 0 -20 2l-115 -23q-221 -41 -481 -127q-2 -29 -2 -55q0 -125 60 -199.5t159 -74.5q164 0 313 202q8 31 31 43q16 25 51 86q16 29 47 29q29 0 51.5 -21.5t22.5 -54.5q0 -14 -6 -30zM803 719q-10 33 -17 86q-74 106 -159 106q-90 0 -182.5 -98t-133.5 -235q291 86 428 110 q19 13 64 31zM877 1206q14 -14 14 -33q0 -49 -49 -49q-23 0 -45.5 18.5t-48.5 73.5l-84 107q-27 33 -39 30q-12 -2 -46 -40t-100 -103q-25 -45 -65 -74q-16 -8 -31 -8q-53 0 -53 49q0 20 16 39l160 162q66 72 115 74q61 4 116 -68z" />
<glyph unicode="&#xeb;" horiz-adv-x="1058" d="M1010 367q-10 -29 -84 -99q-72 -115 -185 -190q-123 -82 -243 -82q-166 0 -262 125q-81 105 -81 244q0 16 1 32q-47 -12 -66 -16q-7 -1 -13 -1q-48 0 -48 56q0 37 24 64q37 35 125 45q51 209 180 347t267 138q180 0 270 -180q23 -43 51 -121q8 -33 8 -63q0 -76 -55 -76 q-10 0 -20 2l-115 -23q-221 -41 -481 -127q-2 -29 -2 -55q0 -125 60 -199.5t159 -74.5q164 0 313 202q8 31 31 43q16 25 51 86q16 29 47 29q29 0 51.5 -21.5t22.5 -54.5q0 -14 -6 -30zM803 719q-10 33 -17 86q-74 106 -159 106q-90 0 -182.5 -98t-133.5 -235q291 86 428 110 q19 13 64 31zM813 1188q-20 -37 -62 -37q-33 0 -60.5 23.5t-27.5 56.5q0 20 11 39q23 37 63 37q33 0 60.5 -23.5t27.5 -56.5q0 -21 -12 -39zM540 1186q-23 -37 -63 -37q-33 0 -59.5 23.5t-26.5 56.5q0 20 10 39q20 37 62 37q35 0 61.5 -24.5t26.5 -57.5q-1 -19 -11 -37z" />
<glyph unicode="&#xec;" horiz-adv-x="417" d="M287 170q4 -80 -11 -150q-12 -45 -63 -45q-49 0 -57 43q-16 74 -4 211q14 182 6 496q-23 47 -23 94q0 66 66 66q53 0 67 -51q4 -12 8 -105q6 -188 -8 -496q17 -16 19 -63zM352 1081q20 -16 21 -39q0 -23 -17.5 -41t-42.5 -18q-31 0 -82 57q-8 8 -143 113q-88 35 -117 67 q-18 18 -18 41q0 27 18.5 44.5t42.5 17.5q18 0 35 -9z" />
<glyph unicode="&#xed;" horiz-adv-x="417" d="M287 170q4 -80 -11 -150q-12 -45 -63 -45q-49 0 -57 43q-16 74 -4 211q14 182 6 496q-23 47 -23 94q0 66 66 66q53 0 67 -51q4 -12 8 -105q6 -188 -8 -496q17 -16 19 -63zM328 1168q-25 -18 -79 -62.5t-81 -62.5q-16 -25 -51 -47q-12 -6 -25 -6q-51 0 -51 51q0 25 21 41 l305 233q14 8 32 8q66 0 66 -51q0 -25 -26.5 -51t-110.5 -53z" />
<glyph unicode="&#xee;" horiz-adv-x="417" d="M287 170q4 -80 -11 -150q-12 -45 -63 -45q-49 0 -57 43q-16 74 -4 211q14 182 6 496q-23 47 -23 94q0 66 66 66q53 0 67 -51q4 -12 8 -105q6 -188 -8 -496q17 -16 19 -63zM477 1053q14 -14 14 -33q0 -49 -49 -49q-23 0 -45.5 18.5t-48.5 73.5l-84 107q-27 33 -39 30 q-12 -2 -46 -40t-100 -103q-25 -45 -65 -74q-16 -8 -31 -8q-53 0 -53 49q0 20 16 39l160 162q66 72 115 74q61 4 116 -68z" />
<glyph unicode="&#xef;" horiz-adv-x="417" d="M287 170q4 -80 -11 -150q-12 -45 -63 -45q-49 0 -57 43q-16 74 -4 211q14 182 6 496q-23 47 -23 94q0 66 66 66q53 0 67 -51q4 -12 8 -105q6 -188 -8 -496q17 -16 19 -63zM412 1051q-20 -37 -62 -37q-33 0 -60.5 23.5t-27.5 56.5q0 20 11 39q23 37 63 37q33 0 60.5 -23.5 t27.5 -56.5q0 -21 -12 -39zM139 1049q-23 -37 -63 -37q-33 0 -59.5 23.5t-26.5 56.5q0 20 10 39q20 37 62 37q35 0 61.5 -24.5t26.5 -57.5q-1 -19 -11 -37z" />
<glyph unicode="&#xf1;" horiz-adv-x="1009" d="M918 66v-12q0 -81 -56 -89q-4 -1 -8 0q-22 0 -42 18q-24 22 -28 61.5t-16 139.5q-14 37 -4 56q-10 143 -35 448q-6 80 -20 82q-2 1 -5 1q-26 0 -106 -81q-170 -174 -309 -440q-23 -45 -68 -209q-18 -68 -63 -68q-29 -12 -52 -4q-40 13 -39 65q0 7 1 15q29 240 32 268 q16 80 54 506q-18 48 -19 89q0 14 2 26q11 74 70 74h12q23 -2 40 -22.5t17 -43.5q0 -78 -6 -129q-8 -121 -39 -422q104 190 281 375q121 129 205 129q23 0 43 -8q68 -31 88 -189q6 -150 35 -479q17 -51 35 -157zM874 1138q-68 -55 -137 -57q-49 0 -137 39q-57 35 -98 31 q-29 -4 -47 -15q-43 -59 -89 -59q-59 0 -59 53q0 31 68 74q61 41 118 45q72 6 154 -37q55 -31 86 -31q6 0 35 8q27 23 51 35q14 8 29 8q49 0 49 -53q0 -25 -23 -41z" />
<glyph unicode="&#xf2;" d="M854 834q45 -70 45 -164q0 -121 -65 -242q-145 -272 -369 -410q-86 -51 -168 -51q-98 0 -158 82q-78 109 -78 309q0 152 58 297q51 133 127 203q86 80 147 80q20 0 41 -8q80 29 158 28q70 0 145 -34q84 -37 117 -90zM748 782q-20 25 -67.5 42.5t-86.5 17.5 q-49 0 -93 -15.5t-104 -78.5q-20 -25 -49 -25t-47 25q-53 -66 -88 -176.5t-35 -209.5q0 -178 60 -249q27 -31 61 -31q35 0 104 41q195 115 332 369q47 88 47 176q1 69 -34 114zM768 1155q20 -16 21 -39q0 -23 -17.5 -41t-42.5 -18q-31 0 -82 57q-8 8 -143 113 q-88 35 -117 67q-18 18 -18 41q0 27 18.5 44.5t42.5 17.5q18 0 35 -9z" />
<glyph unicode="&#xf3;" d="M854 834q45 -70 45 -164q0 -121 -65 -242q-145 -272 -369 -410q-86 -51 -168 -51q-98 0 -158 82q-78 109 -78 309q0 152 58 297q51 133 127 203q86 80 147 80q20 0 41 -8q80 29 158 28q70 0 145 -34q84 -37 117 -90zM748 782q-20 25 -67.5 42.5t-86.5 17.5 q-49 0 -93 -15.5t-104 -78.5q-20 -25 -49 -25t-47 25q-53 -66 -88 -176.5t-35 -209.5q0 -178 60 -249q27 -31 61 -31q35 0 104 41q195 115 332 369q47 88 47 176q1 69 -34 114zM690 1239q-25 -18 -79 -62.5t-81 -62.5q-16 -25 -51 -47q-12 -6 -25 -6q-51 0 -51 51 q0 25 21 41l305 233q14 8 32 8q66 0 66 -51q0 -25 -26.5 -51t-110.5 -53z" />
<glyph unicode="&#xf4;" d="M854 834q45 -70 45 -164q0 -121 -65 -242q-145 -272 -369 -410q-86 -51 -168 -51q-98 0 -158 82q-78 109 -78 309q0 152 58 297q51 133 127 203q86 80 147 80q20 0 41 -8q80 29 158 28q70 0 145 -34q84 -37 117 -90zM748 782q-20 25 -67.5 42.5t-86.5 17.5 q-49 0 -93 -15.5t-104 -78.5q-20 -25 -49 -25t-47 25q-53 -66 -88 -176.5t-35 -209.5q0 -178 60 -249q27 -31 61 -31q35 0 104 41q195 115 332 369q47 88 47 176q1 69 -34 114zM807 1133q14 -14 14 -33q0 -49 -49 -49q-23 0 -45.5 18.5t-48.5 73.5l-84 107q-27 33 -39 30 q-12 -2 -46 -40t-100 -103q-25 -45 -65 -74q-16 -8 -31 -8q-53 0 -53 49q0 20 16 39l160 162q66 72 115 74q61 4 116 -68z" />
<glyph unicode="&#xf5;" d="M854 834q45 -70 45 -164q0 -121 -65 -242q-145 -272 -369 -410q-86 -51 -168 -51q-98 0 -158 82q-78 109 -78 309q0 152 58 297q51 133 127 203q86 80 147 80q20 0 41 -8q80 29 158 28q70 0 145 -34q84 -37 117 -90zM748 782q-20 25 -67.5 42.5t-86.5 17.5 q-49 0 -93 -15.5t-104 -78.5q-20 -25 -49 -25t-47 25q-53 -66 -88 -176.5t-35 -209.5q0 -178 60 -249q27 -31 61 -31q35 0 104 41q195 115 332 369q47 88 47 176q1 69 -34 114zM833 1141q-68 -55 -137 -57q-49 0 -137 39q-57 35 -98 31q-29 -4 -47 -15q-43 -59 -89 -59 q-59 0 -59 53q0 31 68 74q61 41 118 45q72 6 154 -37q55 -31 86 -31q6 0 35 8q27 23 51 35q14 8 29 8q49 0 49 -53q0 -25 -23 -41z" />
<glyph unicode="&#xf6;" d="M854 834q45 -70 45 -164q0 -121 -65 -242q-145 -272 -369 -410q-86 -51 -168 -51q-98 0 -158 82q-78 109 -78 309q0 152 58 297q51 133 127 203q86 80 147 80q20 0 41 -8q80 29 158 28q70 0 145 -34q84 -37 117 -90zM748 782q-20 25 -67.5 42.5t-86.5 17.5 q-49 0 -93 -15.5t-104 -78.5q-20 -25 -49 -25t-47 25q-53 -66 -88 -176.5t-35 -209.5q0 -178 60 -249q27 -31 61 -31q35 0 104 41q195 115 332 369q47 88 47 176q1 69 -34 114zM756 1134q-20 -37 -62 -37q-33 0 -60.5 23.5t-27.5 56.5q0 20 11 39q23 37 63 37 q33 0 60.5 -23.5t27.5 -56.5q0 -21 -12 -39zM483 1132q-23 -37 -63 -37q-33 0 -59.5 23.5t-26.5 56.5q0 20 10 39q20 37 62 37q35 0 61.5 -24.5t26.5 -57.5q-1 -19 -11 -37z" />
<glyph unicode="&#xf7;" horiz-adv-x="1038" d="M561 897q39 -25 39 -70q0 -35 -24.5 -62.5t-59.5 -27.5q-25 0 -47 15q-41 25 -41 69q0 35 25.5 62.5t60.5 27.5q22 0 47 -14zM961 426q-55 -14 -125 2q-68 0 -250 -2q-25 0 -86 -2h-74q-92 0 -223 -4q-86 -29 -123 -17q-45 12 -45 62q0 61 57 63l338 9q80 -2 195 2l315 8 q59 2 59 -60q1 -51 -38 -61zM565 215q41 -27 41 -70q0 -37 -25.5 -64.5t-60.5 -27.5q-25 0 -47 15q-39 27 -39 69q0 37 24.5 64.5t59.5 27.5q24 0 47 -14z" />
<glyph unicode="&#xf8;" d="M852 838l2 -4q45 -70 45 -164q0 -119 -65 -242q-145 -272 -369 -410q-86 -51 -168 -51q-106 0 -164 90q-57 -117 -108 -149q-12 -8 -29 -8q-25 0 -43.5 18.5t-18.5 42.5q0 12 7 25q16 29 116 141l33 35q-29 94 -29 196q0 152 58 297q51 133 127 203q86 80 147 80 q20 0 41 -8q80 29 158 28q98 0 190 -57l4 6q43 100 97 152q23 23 47 22q51 0 51 -57q0 -39 -129 -186zM705 813q-55 29 -111 29q-49 0 -93 -15.5t-104 -78.5q-20 -25 -49 -25t-47 25q-53 -66 -88 -176.5t-35 -209.5q0 -51 8 -98zM768 743l-553 -589q31 -72 84 -72 q35 0 104 41q195 115 332 369q47 88 47 176q0 40 -14 75z" />
<glyph unicode="&#xf9;" horiz-adv-x="931" d="M879 29q9 -22 9 -40q0 -27 -20 -46q-18 -18 -49 -19q-33 0 -59 25q-35 33 -64 119q-25 25 -14 49q-37 168 -39 366q-92 -225 -205 -391q-66 -96 -149 -96q-80 0 -133 96q-66 116 -66 320v24q2 195 41 400q-10 31 8 53q6 57 31 100q22 52 61 52q4 0 9 -1q61 -6 61 -73 q0 -41 -49 -129q-43 -209 -43 -400q0 -201 45 -284q18 -37 39 -37q16 0 47 43q119 168 225 452q66 176 80 301q12 102 73 103h3q65 -4 65 -89q0 -12 -2 -26q-20 -231 -20 -319q0 -272 37 -451q49 -39 78 -102zM653 1223q20 -16 21 -39q0 -23 -17.5 -41t-42.5 -18 q-31 0 -82 57q-8 8 -143 113q-88 35 -117 67q-18 18 -18 41q0 27 18.5 44.5t42.5 17.5q18 0 35 -9z" />
<glyph unicode="&#xfa;" horiz-adv-x="931" d="M879 29q9 -22 9 -40q0 -27 -20 -46q-18 -18 -49 -19q-33 0 -59 25q-35 33 -64 119q-25 25 -14 49q-37 168 -39 366q-92 -225 -205 -391q-66 -96 -149 -96q-80 0 -133 96q-66 116 -66 320v24q2 195 41 400q-10 31 8 53q6 57 31 100q22 52 61 52q4 0 9 -1q61 -6 61 -73 q0 -41 -49 -129q-43 -209 -43 -400q0 -201 45 -284q18 -37 39 -37q16 0 47 43q119 168 225 452q66 176 80 301q12 102 73 103h3q65 -4 65 -89q0 -12 -2 -26q-20 -231 -20 -319q0 -272 37 -451q49 -39 78 -102zM674 1303q-25 -18 -79 -62.5t-81 -62.5q-16 -25 -51 -47 q-12 -6 -25 -6q-51 0 -51 51q0 25 21 41l305 233q14 8 32 8q66 0 66 -51q0 -25 -26.5 -51t-110.5 -53z" />
<glyph unicode="&#xfb;" horiz-adv-x="931" d="M879 29q9 -22 9 -40q0 -27 -20 -46q-18 -18 -49 -19q-33 0 -59 25q-35 33 -64 119q-25 25 -14 49q-37 168 -39 366q-92 -225 -205 -391q-66 -96 -149 -96q-80 0 -133 96q-66 116 -66 320v24q2 195 41 400q-10 31 8 53q6 57 31 100q22 52 61 52q4 0 9 -1q61 -6 61 -73 q0 -41 -49 -129q-43 -209 -43 -400q0 -201 45 -284q18 -37 39 -37q16 0 47 43q119 168 225 452q66 176 80 301q12 102 73 103h3q65 -4 65 -89q0 -12 -2 -26q-20 -231 -20 -319q0 -272 37 -451q49 -39 78 -102zM766 1249q14 -14 14 -33q0 -49 -49 -49q-23 0 -45.5 18.5 t-48.5 73.5l-84 107q-27 33 -39 30q-12 -2 -46 -40t-100 -103q-25 -45 -65 -74q-16 -8 -31 -8q-53 0 -53 49q0 20 16 39l160 162q66 72 115 74q61 4 116 -68z" />
<glyph unicode="&#xfc;" horiz-adv-x="931" d="M879 29q9 -22 9 -40q0 -27 -20 -46q-18 -18 -49 -19q-33 0 -59 25q-35 33 -64 119q-25 25 -14 49q-37 168 -39 366q-92 -225 -205 -391q-66 -96 -149 -96q-80 0 -133 96q-66 116 -66 320v24q2 195 41 400q-10 31 8 53q6 57 31 100q22 52 61 52q4 0 9 -1q61 -6 61 -73 q0 -41 -49 -129q-43 -209 -43 -400q0 -201 45 -284q18 -37 39 -37q16 0 47 43q119 168 225 452q66 176 80 301q12 102 73 103h3q65 -4 65 -89q0 -12 -2 -26q-20 -231 -20 -319q0 -272 37 -451q49 -39 78 -102zM709 1210q-20 -37 -62 -37q-33 0 -60.5 23.5t-27.5 56.5 q0 20 11 39q23 37 63 37q33 0 60.5 -23.5t27.5 -56.5q0 -21 -12 -39zM436 1208q-23 -37 -63 -37q-33 0 -59.5 23.5t-26.5 56.5q0 20 10 39q20 37 62 37q35 0 61.5 -24.5t26.5 -57.5q-1 -19 -11 -37z" />
<glyph unicode="&#xfd;" horiz-adv-x="1024" d="M1118 1260q-25 -18 -79 -62.5t-81 -62.5q-16 -25 -51 -47q-12 -6 -25 -6q-51 0 -51 51q0 25 21 41l305 233q14 8 32 8q66 0 66 -51q0 -25 -26.5 -51t-110.5 -53zM961 838q-33 -147 -50 -308q-14 -180 -49 -575q-27 -272 -57 -346q-47 -115 -103 -166q-63 -55 -155 -55 q-106 0 -238 77l-135 74q-47 25 -137 55q-72 27 -72 74q0 10 4 21q18 43 68 43q92 0 194 -90q84 -41 136 -72q109 -63 182 -64q109 0 158 191q16 66 36 272q18 184 41 475q-55 -113 -127 -215q-27 -39 -116 -139q-119 -137 -205 -137q-68 0 -125 65q-49 55 -74 134 q-31 92 -31 223q0 141 29 373q4 51 17 126q14 47 65 48h4q72 -6 72 -82v-13q-4 -41 -41 -102q-29 -250 -29 -350t25 -176q39 -129 86 -129q31 0 125 106q170 190 260 406q45 113 65 198q14 66 29 97q22 50 71 49h11q33 -4 52 -31q15 -20 15 -43q0 -7 -1 -14z" />
<glyph unicode="&#xff;" horiz-adv-x="1024" d="M961 838q-33 -147 -50 -308q-14 -180 -49 -575q-27 -272 -57 -346q-47 -115 -103 -166q-63 -55 -155 -55q-106 0 -238 77l-135 74q-47 25 -137 55q-72 27 -72 74q0 10 4 21q18 43 68 43q92 0 194 -90q84 -41 136 -72q109 -63 182 -64q109 0 158 191q16 66 36 272 q18 184 41 475q-55 -113 -127 -215q-27 -39 -116 -139q-119 -137 -205 -137q-68 0 -125 65q-49 55 -74 134q-31 92 -31 223q0 141 29 373q4 51 17 126q14 47 65 48h4q72 -6 72 -82v-13q-4 -41 -41 -102q-29 -250 -29 -350t25 -176q39 -129 86 -129q31 0 125 106 q170 190 260 406q45 113 65 198q14 66 29 97q22 50 71 49h11q33 -4 52 -31q15 -20 15 -43q0 -7 -1 -14zM782 1110q-20 -37 -62 -37q-33 0 -60.5 23.5t-27.5 56.5q0 20 11 39q23 37 63 37q33 0 60.5 -23.5t27.5 -56.5q0 -21 -12 -39zM509 1108q-23 -37 -63 -37 q-33 0 -59.5 23.5t-26.5 56.5q0 20 10 39q20 37 62 37q35 0 61.5 -24.5t26.5 -57.5q-1 -19 -11 -37z" />
<glyph unicode="&#x131;" horiz-adv-x="417" d="M287 170q4 -80 -11 -150q-12 -45 -63 -45q-49 0 -57 43q-16 74 -4 211q14 182 6 496q-23 47 -23 94q0 66 66 66q53 0 67 -51q4 -12 8 -105q6 -188 -8 -496q17 -16 19 -63z" />
<glyph unicode="&#x152;" horiz-adv-x="2177" d="M2087 1313q0 -76 -119 -76q-35 0 -110 20q-31 -2 -588 -61q-12 -141 -29 -426q160 16 455 49q96 12 143 12q94 0 96 -65q2 -59 -71 -74q-63 -12 -156 10q-258 -29 -469 -49q-4 -190 -20 -458q229 18 663 45q47 23 90 26q98 8 99 -71q0 -51 -68 -66q-12 -2 -109 -6 l-682 -45q14 -76 15 -107q0 -43 -23.5 -77.5t-58.5 -34.5q-59 0 -64 63q-2 35 6 146h-75q-66 0 -66 63q0 55 62 72q47 12 94 8q14 217 16 358q-66 -158 -182 -360q-74 -125 -183.5 -203t-215.5 -82q-199 -4 -299 246q-78 195 -78 455q0 205 57 383q61 186 172 292q4 4 19 13 q8 12 18 18q190 109 391 109q207 0 316 -119q4 39 27.5 69.5t60.5 28.5q59 -2 55 -104q385 45 590 61q82 6 145 2q76 -6 76 -65zM1116 1006q2 80 -18 137q-6 -2 -19 -2q-100 -6 -116 53q-2 10 -2 20q0 39 49 56q-49 35 -113 49q-80 16 -184 -2q-117 -100 -215 -133 q-18 -2 -33 -2q-14 0 -25 2q-164 -190 -164 -559q0 -246 69 -417t192 -171q160 2 299 233q272 451 280 736z" />
<glyph unicode="&#x153;" horiz-adv-x="1671" d="M1612 367q-12 -29 -86 -99q-72 -115 -185 -190q-123 -82 -243 -82q-139 0 -232 92q-86 86 -106 221q-129 -188 -295 -291q-86 -51 -168 -51q-98 0 -158 82q-78 109 -78 309q0 152 58 297q51 133 127 203q86 80 147 80q20 0 41 -8q80 29 158 28q70 0 145 -34 q84 -37 117 -90l25 -50q66 115 160 180.5t186 65.5q182 0 270 -180q23 -43 53 -121q6 -33 6 -63q0 -76 -55 -76q-8 0 -20 2l-115 -23q-221 -41 -481 -127q-2 -29 -2 -55q0 -125 60 -199.5t159 -74.5q164 0 313 202q8 31 31 43q16 25 51 86q16 29 49 29q27 0 49.5 -21.5 t22.5 -54.5q0 -14 -4 -30zM1403 719q-10 33 -17 86q-72 106 -159 106q-88 0 -181.5 -98t-134.5 -235q291 86 428 110q19 13 64 31zM754 541q27 68 26 129q0 68 -32 112q-18 25 -65.5 42.5t-88.5 17.5q-49 0 -93 -15.5t-104 -78.5q-20 -25 -49 -25t-47 25q-53 -66 -88 -176.5 t-35 -209.5q0 -178 60 -249q27 -31 61 -31q33 0 104 41q143 84 261 258q-37 10 -37 53q0 39 29.5 68t97.5 39z" />
<glyph unicode="&#x178;" horiz-adv-x="1208" d="M1247 1430q0 -31 -28 -58q-37 -29 -101 -88q-297 -305 -506 -666q3 -41 3 -74q0 -17 -1 -32l-14 -324q15 -70 15 -124q0 -12 -1 -23q-6 -102 -73 -102q-63 0 -64 94q0 45 6 129q-14 29 0 61q4 117 15 291v57q2 0 -5.5 18.5t-7.5 26.5l-385 635q-23 14 -30 47l-41 68 q-12 23 -13 41q0 27 27 47q20 14 41 14q33 0 63.5 -35.5t42.5 -101.5l359 -588q201 334 483 621q27 53 78 98q29 27 72 27q31 0 48 -18t17 -41zM787 1571q-20 -37 -62 -37q-33 0 -60.5 23.5t-27.5 56.5q0 20 11 39q23 37 63 37q33 0 60.5 -23.5t27.5 -56.5q0 -21 -12 -39z M514 1569q-23 -37 -63 -37q-33 0 -59.5 23.5t-26.5 56.5q0 20 10 39q20 37 62 37q35 0 61.5 -24.5t26.5 -57.5q-1 -19 -11 -37z" />
<glyph unicode="&#x2c6;" horiz-adv-x="1058" d="M883 1231q14 -14 14 -33q0 -49 -49 -49q-23 0 -45.5 18.5t-48.5 73.5l-84 107q-27 33 -39 30q-12 -2 -46 -40t-100 -103q-25 -45 -65 -74q-16 -8 -31 -8q-53 0 -53 49q0 20 16 39l160 162q66 72 115 74q61 4 116 -68z" />
<glyph unicode="&#x2da;" horiz-adv-x="423" d="M403 1346q0 -78 -53 -133.5t-129 -55.5q-78 0 -133 55.5t-55 133.5q0 74 56 127t132 53q74 0 128 -53t54 -127zM346 1346q0 51 -37 87.5t-88 36.5q-53 0 -92 -36.5t-39 -87.5q0 -55 38 -94.5t93 -39.5q53 0 89 39.5t36 94.5z" />
<glyph unicode="&#x2dc;" horiz-adv-x="1007" d="M870 1161q-68 -55 -137 -57q-49 0 -137 39q-57 35 -98 31q-29 -4 -47 -15q-43 -59 -89 -59q-59 0 -59 53q0 31 68 74q61 41 118 45q72 6 154 -37q55 -31 86 -31q6 0 35 8q27 23 51 35q14 8 29 8q49 0 49 -53q0 -25 -23 -41z" />
<glyph unicode="&#x2000;" horiz-adv-x="972" />
<glyph unicode="&#x2001;" horiz-adv-x="1945" />
<glyph unicode="&#x2002;" horiz-adv-x="972" />
<glyph unicode="&#x2003;" horiz-adv-x="1945" />
<glyph unicode="&#x2004;" horiz-adv-x="647" />
<glyph unicode="&#x2005;" horiz-adv-x="485" />
<glyph unicode="&#x2006;" horiz-adv-x="323" />
<glyph unicode="&#x2007;" horiz-adv-x="323" />
<glyph unicode="&#x2008;" horiz-adv-x="241" />
<glyph unicode="&#x2009;" horiz-adv-x="389" />
<glyph unicode="&#x200a;" horiz-adv-x="106" />
<glyph unicode="&#x2010;" horiz-adv-x="788" d="M678 508q-47 -18 -127 0q-88 -2 -252 -8q-86 -29 -127 -17q-47 12 -47 62q0 63 61 63q6 0 469 19q61 2 62 -60q0 -43 -39 -59z" />
<glyph unicode="&#x2011;" horiz-adv-x="788" d="M678 508q-47 -18 -127 0q-88 -2 -252 -8q-86 -29 -127 -17q-47 12 -47 62q0 63 61 63q6 0 469 19q61 2 62 -60q0 -43 -39 -59z" />
<glyph unicode="&#x2012;" horiz-adv-x="788" d="M678 508q-47 -18 -127 0q-88 -2 -252 -8q-86 -29 -127 -17q-47 12 -47 62q0 63 61 63q6 0 469 19q61 2 62 -60q0 -43 -39 -59z" />
<glyph unicode="&#x2013;" horiz-adv-x="987" d="M915 508q-47 -18 -127 0q-207 -2 -489 -8q-86 -29 -127 -17q-47 12 -47 62q0 63 61 63q190 0 707 19q63 2 63 -60q0 -43 -41 -59z" />
<glyph unicode="&#x2014;" horiz-adv-x="1243" d="M1180 502q-55 -14 -125 2q-360 -4 -799 -10q-84 -27 -121 -17q-47 14 -47 60q0 57 57 57q172 0 1014 18q59 2 60 -55q0 -45 -39 -55z" />
<glyph unicode="&#x2018;" horiz-adv-x="360" d="M315 1153q4 -8 4 -20q0 -51 -59 -52q-27 0 -42 22.5t-25 72.5q-51 113 -80 170q-59 55 -68 110q-12 80 47 80q35 0 53 -33q45 -80 170 -350z" />
<glyph unicode="&#x2019;" horiz-adv-x="360" d="M248 1350l-74 -166q-6 -49 -33 -82q-20 -25 -47 -25q-53 0 -53 51q0 12 6 25q117 254 170 350q14 27 49 27q59 0 60 -55q0 -43 -78 -125z" />
<glyph unicode="&#x201a;" horiz-adv-x="331" d="M223 -35l-71 -166q-8 -51 -35 -82q-18 -25 -47 -24q-51 0 -52 51q0 12 5 25q117 254 170 348q16 29 51 28q57 0 57 -55q0 -43 -78 -125z" />
<glyph unicode="&#x201c;" horiz-adv-x="571" d="M563 1149q4 -8 4 -19q0 -53 -61 -53q-29 0 -45 25q-12 18 -21 76l-73 170q-53 53 -64 112q-12 78 47 78q39 0 58 -35q36 -71 155 -354zM326 1153q4 -10 4 -20q0 -51 -58 -52q-29 0 -45 21.5t-24 73.5q-51 113 -80 170q-59 55 -70 110q-12 80 47 80q37 0 56 -33 q43 -80 170 -350z" />
<glyph unicode="&#x201d;" horiz-adv-x="577" d="M489 1348q-29 -53 -81 -164q-14 -102 -82 -103q-51 0 -52 52q0 14 7 26l180 342q18 25 51 25q57 0 57 -53q0 -41 -80 -125zM242 1350l-72 -166q-6 -49 -33 -82q-20 -25 -47 -25q-53 0 -53 51q0 12 6 25q115 254 168 350q16 27 51 27q57 0 57 -55q1 -43 -77 -125z" />
<glyph unicode="&#x201e;" horiz-adv-x="579" d="M471 -37q-29 -53 -82 -164q-14 -102 -82 -102q-53 0 -53 51q0 12 8 27l180 340q18 27 52 26q55 0 55 -53q0 -43 -78 -125zM223 -35l-71 -166q-8 -51 -35 -82q-18 -25 -47 -24q-51 0 -52 51q0 12 5 25q117 254 170 348q16 29 51 28q57 0 57 -55q0 -43 -78 -125z" />
<glyph unicode="&#x2022;" horiz-adv-x="790" d="M649 561q0 -104 -74.5 -178t-179.5 -74q-104 0 -178 74t-74 178t74 178t178 74t179 -75t75 -177z" />
<glyph unicode="&#x2026;" horiz-adv-x="1505" d="M1192 -20q-23 0 -45 10q-41 23 -41 71q0 27 14 52q23 37 72 37q27 0 49 -13q37 -23 37 -71q0 -37 -25.5 -61.5t-60.5 -24.5zM690 -20q-23 0 -45 10q-41 23 -41 71q0 27 14 52q23 37 72 37q27 0 49 -13q37 -23 37 -71q0 -37 -25.5 -61.5t-60.5 -24.5zM188 -20 q-23 0 -45 10q-41 23 -41 71q0 27 15 52q23 37 71 37q27 0 50 -13q37 -23 36 -71q0 -37 -25.5 -61.5t-60.5 -24.5z" />
<glyph unicode="&#x202f;" horiz-adv-x="389" />
<glyph unicode="&#x2039;" horiz-adv-x="434" d="M283 623l-88 -84q-29 -27 -29 -45t39 -70q16 -25 57 -74q63 -35 90 -86q10 -20 10 -37q0 -47 -40 -47q-20 0 -35 15q-57 57 -148 178q-68 88 -67 127q0 37 66 103l151 149q14 14 35 14q53 0 53 -49q0 -53 -94 -94z" />
<glyph unicode="&#x203a;" horiz-adv-x="434" d="M332 356l-154 -151q-16 -18 -37 -19q-45 0 -45 50q0 59 123 124q80 80 80 105q0 20 -37 67l-59 68q-59 31 -97 90q-16 25 -16 45q0 39 43 39q20 0 39 -14q29 -20 156 -174q66 -78 65 -123q0 -41 -61 -107z" />
<glyph unicode="&#x2044;" d="M977 1513q-20 -115 -328 -632l-473 -805q-37 -178 -82 -228q-16 -16 -39 -16q-29 0 -49 21.5t-12 50.5q29 115 352 653q383 643 467 809q33 217 111 217q25 0 42 -20.5t11 -49.5z" />
<glyph unicode="&#x205f;" horiz-adv-x="485" />
<glyph unicode="&#x2122;" horiz-adv-x="1677" d="M1524 586q4 -31 -7.5 -59.5t-37.5 -32.5q-47 -6 -64 41q-8 20 -14 81q-12 137 -27 414q-78 -152 -155 -280q-4 -16 -15 -35q-12 -29 -49 -31q-18 -4 -37.5 9.5t-23.5 33.5q-6 14 -7 29l-194 362q-10 -252 -27 -452q14 -16 15 -48q0 -39 -19 -67q-20 -35 -53 -35 q-57 0 -53 64q8 117 20 346q6 100 15 293q-14 57 -11 104q0 57 47 61q47 10 66 -32q10 -18 25 -62q92 -162 143 -260l94 -178l82 147l96 191q14 27 33 72q4 31 12 45q16 57 76 34q35 -12 35 -57q0 -20 -8 -43q-2 -37 -2 -82q0 -233 28 -526q11 -20 17 -47zM684 1292 q0 -27 -22.5 -41t-40.5 -14q-43 0 -62 10q-41 -2 -158 -10q-2 -88 -12 -297q-8 -199 -8 -299q23 -33 22 -66q0 -78 -65 -77q-63 0 -64 131q0 154 19 569q-2 10 -4 25q-94 -12 -166 -25q-14 -8 -49 -20q-33 -8 -57.5 10t-24.5 45q0 37 49 55q12 6 58 14.5t194 26.5 q18 33 55 33q27 0 41 -21q199 16 248 9q47 -11 47 -58z" />
<glyph unicode="&#xe000;" horiz-adv-x="1030" d="M0 1030h1030v-1030h-1030v1030z" />
<glyph unicode="&#xfb01;" horiz-adv-x="962" d="M873 1153q0 -59 -45 -66q-13 -1 -26 -1q-42 0 -68 17q-34 22 -33 71q0 74 80 77q35 0 69 -30q23 -21 23 -68zM832 170q1 -18 1 -35q0 -60 -12 -115q-12 -45 -63 -45q-49 0 -57 43q-9 42 -10 105q0 47 6 106q9 116 9 285q0 97 -3 211q-23 47 -23 94q0 66 66 66 q53 0 67 -51q4 -12 8 -105q2 -57 2 -124q0 -157 -10 -372q17 -16 19 -63zM606 1530q-2 -61 -10 -82q-27 -68 -70 -68q-39 0 -55 43q-14 35 -14 99q0 74 8 127q-10 51 -57 51q-33 0 -62 -45q-37 -59 -43 -168q-10 -182 -14 -361h119q23 8 51 0q111 0 110 -59q0 -39 -41 -63 q-12 -7 -32 -8q-26 0 -66 12h-143q-1 -50 -1 -101q0 -370 40 -772l18 -170q1 -9 1 -17q0 -63 -56 -63q-53 0 -64 66q-20 143 -20 155q0 14 2 21q-39 389 -39 732q0 75 2 147q-76 -4 -107 -11q-31 -4 -49 14q-17 16 -16 40q0 56 47 71q22 8 45 8t47 -8q14 4 35 4 q2 137 14 367q6 147 69.5 237.5t147.5 90.5q117 0 175 -127q29 -63 28 -150v-12z" />
<glyph unicode="&#xfb02;" horiz-adv-x="954" d="M875 1606q-59 -377 -64 -777q-2 -207 -2 -501q37 -121 37 -203q0 -76 -29.5 -113t-66.5 -37q-53 0 -53 58q-5 194 -6 483q0 145 1 313q4 256 35 553q-13 131 -12 157q0 64 30.5 101t69.5 37q29 0 46 -20q14 -17 15 -40q0 -5 -1 -11zM606 1530q-2 -61 -10 -82 q-27 -68 -70 -68q-39 0 -55 43q-14 35 -14 99q0 74 8 127q-10 51 -57 51q-33 0 -62 -45q-37 -59 -43 -168q-10 -182 -14 -361h119q23 8 51 0q111 0 110 -59q0 -39 -41 -63q-12 -7 -32 -8q-26 0 -66 12h-143q-1 -50 -1 -101q0 -370 40 -772l18 -170q1 -9 1 -17q0 -63 -56 -63 q-53 0 -64 66q-20 143 -20 155q0 14 2 21q-39 389 -39 732q0 75 2 147q-76 -4 -107 -11q-31 -4 -49 14q-17 16 -16 40q0 56 47 71q22 8 45 8t47 -8q14 4 35 4q2 137 14 367q6 147 69.5 237.5t147.5 90.5q117 0 175 -127q29 -63 28 -150v-12z" />
<glyph unicode="&#xfb03;" horiz-adv-x="1507" d="M1418 1153q0 -59 -45 -66q-13 -1 -26 -1q-42 0 -68 17q-34 22 -33 71q0 74 80 77q35 0 69 -30q23 -21 23 -68zM1377 170q1 -18 1 -35q0 -60 -12 -115q-12 -45 -63 -45q-49 0 -57 43q-9 42 -10 105q0 47 6 106q9 116 9 285q0 97 -3 211q-23 47 -23 94q0 66 66 66 q53 0 67 -51q4 -12 8 -105q2 -57 2 -124q0 -157 -10 -372q17 -16 19 -63zM1151 1530q-2 -61 -10 -82q-27 -68 -70 -68q-39 0 -55 43q-14 35 -14 99q0 74 8 127q-10 51 -57 51q-33 0 -62 -45q-37 -59 -43 -168q-10 -182 -14 -361h119q23 8 51 0q111 0 110 -59q0 -39 -41 -63 q-12 -7 -32 -8q-26 0 -66 12h-143q-1 -50 -1 -101q0 -370 40 -772l18 -170q1 -9 1 -17q0 -63 -56 -63q-53 0 -64 66q-20 143 -20 155q0 14 2 21q-39 389 -39 732q0 75 2 147q-76 -4 -107 -11q-31 -4 -49 14q-17 16 -16 40q0 56 47 71q22 8 45 8t47 -8q14 4 35 4 q2 137 14 367q6 147 69.5 237.5t147.5 90.5q117 0 175 -127q29 -63 28 -150v-12zM606 1530q-2 -61 -10 -82q-27 -68 -70 -68q-39 0 -55 43q-14 35 -14 99q0 74 8 127q-10 51 -57 51q-33 0 -62 -45q-37 -59 -43 -168q-10 -182 -14 -361h119q23 8 51 0q111 0 110 -59 q0 -39 -41 -63q-12 -7 -32 -8q-26 0 -66 12h-143q-1 -50 -1 -101q0 -370 40 -772l18 -170q1 -9 1 -17q0 -63 -56 -63q-53 0 -64 66q-20 143 -20 155q0 14 2 21q-39 389 -39 732q0 75 2 147q-76 -4 -107 -11q-31 -4 -49 14q-17 16 -16 40q0 56 47 71q22 8 45 8t47 -8 q14 4 35 4q2 137 14 367q6 147 69.5 237.5t147.5 90.5q117 0 175 -127q29 -63 28 -150v-12z" />
<glyph unicode="&#xfb04;" horiz-adv-x="1499" d="M1420 1606q-59 -377 -64 -777q-2 -207 -2 -501q37 -121 37 -203q0 -76 -29.5 -113t-66.5 -37q-53 0 -53 58q-5 194 -6 483q0 145 1 313q4 256 35 553q-13 131 -12 157q0 64 30.5 101t69.5 37q29 0 46 -20q14 -17 15 -40q0 -5 -1 -11zM1151 1530q-2 -61 -10 -82 q-27 -68 -70 -68q-39 0 -55 43q-14 35 -14 99q0 74 8 127q-10 51 -57 51q-33 0 -62 -45q-37 -59 -43 -168q-10 -182 -14 -361h119q23 8 51 0q111 0 110 -59q0 -39 -41 -63q-12 -7 -32 -8q-26 0 -66 12h-143q-1 -50 -1 -101q0 -370 40 -772l18 -170q1 -9 1 -17q0 -63 -56 -63 q-53 0 -64 66q-20 143 -20 155q0 14 2 21q-39 389 -39 732q0 75 2 147q-76 -4 -107 -11q-31 -4 -49 14q-17 16 -16 40q0 56 47 71q22 8 45 8t47 -8q14 4 35 4q2 137 14 367q6 147 69.5 237.5t147.5 90.5q117 0 175 -127q29 -63 28 -150v-12zM606 1530q-2 -61 -10 -82 q-27 -68 -70 -68q-39 0 -55 43q-14 35 -14 99q0 74 8 127q-10 51 -57 51q-33 0 -62 -45q-37 -59 -43 -168q-10 -182 -14 -361h119q23 8 51 0q111 0 110 -59q0 -39 -41 -63q-12 -7 -32 -8q-26 0 -66 12h-143q-1 -50 -1 -101q0 -370 40 -772l18 -170q1 -9 1 -17q0 -63 -56 -63 q-53 0 -64 66q-20 143 -20 155q0 14 2 21q-39 389 -39 732q0 75 2 147q-76 -4 -107 -11q-31 -4 -49 14q-17 16 -16 40q0 56 47 71q22 8 45 8t47 -8q14 4 35 4q2 137 14 367q6 147 69.5 237.5t147.5 90.5q117 0 175 -127q29 -63 28 -150v-12z" />
</font>
</defs>
</svg>
