<?xml version="1.0" standalone="no"?>
<!DOCTYPE svg PUBLIC "-//W3C//DTD SVG 1.1//EN" "http://www.w3.org/Graphics/SVG/1.1/DTD/svg11.dtd" >
<svg xmlns="http://www.w3.org/2000/svg">
<metadata>
This is a custom SVG webfont generated by Font Squirrel.
Copyright   : Copyright c 2011 by vernon adams All rights reserved
Designer    : vernon adams
Foundry     : vernon adams
</metadata>
<defs>
<font id="webfontYqz9fFDH" horiz-adv-x="1024" >
<font-face units-per-em="2048" ascent="1638" descent="-410" />
<missing-glyph horiz-adv-x="537" />
<glyph unicode=" "  horiz-adv-x="537" />
<glyph unicode="&#x09;" horiz-adv-x="537" />
<glyph unicode="&#xa0;" horiz-adv-x="537" />
<glyph unicode="!" horiz-adv-x="375" d="M64 1792h256l-64 -1408h-128zM64 256h256v-256h-256v256z" />
<glyph unicode="&#x22;" horiz-adv-x="704" d="M62 1792h256l-64 -384h-128zM385 1792h256l-64 -384h-128z" />
<glyph unicode="#" horiz-adv-x="1088" d="M1024 1024h-111l-28 -192h139v-192h-166l-90 -640h-256l90 640h-192l-90 -640h-256l90 640h-90v192h117l28 192h-145v192h172l82 576h256l-82 -576h192l82 576h256l-82 -576h84v-192zM437 832h193l27 192h-192z" />
<glyph unicode="$" horiz-adv-x="1216" d="M576 1920h128v-121q21 -4 41 -9q73 -20 127 -53t91 -75t61 -85q56 -103 64 -233l-256 -64q-4 90 -32 160q-12 30 -30.5 58.5t-45.5 50.5q-10 8 -20 15v-566l128 -102q61 -49 108.5 -107.5t80.5 -122.5t50 -131.5t17 -133.5q0 -83 -27 -158.5t-82.5 -133.5t-139.5 -93 q-60 -24 -135 -31v-113h-128v113q-58 5 -105 19q-73 23 -127 60.5t-91 85t-61 97.5q-56 116 -64 265l256 64q4 -108 32 -192q12 -36 30.5 -70.5t45.5 -61.5t63 -44q10 -4 21 -8v555l-256 205q-49 39 -85.5 88.5t-60.5 104.5t-35.5 112t-11.5 113q0 86 29 164.5t85.5 138 t140.5 94.5t194 35v110zM489 1584q-36 -15 -59.5 -41t-34.5 -61t-11 -74q0 -66 31 -135t97 -121l64 -51v499q-50 0 -87 -16zM832 384q0 48 -12 89.5t-36 80t-60 74.5l-20 20v-450q128 29 128 186z" />
<glyph unicode="%" horiz-adv-x="1999" d="M78 1032q0 111 20 190t52 133t72.5 86t81 48.5t77.5 21.5t63 5t63 -5t78 -21.5t81.5 -48.5t72.5 -86t52 -133t20 -190q0 -133 -31 -226t-82.5 -152t-117.5 -86t-136 -27t-136 27t-117 86t-82 152t-31 226zM311 1032q0 -27 2 -59t7.5 -65t15 -64t24.5 -55.5t35.5 -39 t48.5 -14.5q42 0 68.5 31t41 77t19.5 97t5 92q0 40 -4 90t-18 94.5t-40.5 74.5t-71.5 30q-44 0 -70.5 -30t-40.5 -74.5t-18 -94.5t-4 -90zM1188 492q0 111 20 190t52 132.5t72.5 85.5t81 48.5t77.5 21.5t63 5t63 -5t78 -21.5t81.5 -48.5t72.5 -85.5t52 -132.5t20 -190 q0 -133 -31 -226.5t-82.5 -152.5t-117.5 -86t-136 -27t-136 27t-117 86t-82 152.5t-31 226.5zM1421 492q0 -40 5 -91.5t19.5 -97t40.5 -77t68 -31.5t68.5 31t41 76.5t19.5 97t5 92.5q0 40 -4 90t-18 94t-40.5 74t-71.5 30q-30 0 -51 -14t-36 -37t-24 -53t-14 -62t-6.5 -63.5 t-1.5 -58.5zM1034 1518h219l-282 -1518h-220z" />
<glyph unicode="&#x26;" horiz-adv-x="1344" d="M512 -18q-92 0 -163.5 31.5t-120.5 85.5t-74.5 127.5t-25.5 157.5q0 62 15 128t46.5 132t80 130t114.5 122l-64 128q-34 67 -62.5 133.5t-47 130.5t-18.5 120q0 83 26 156t75 128t120.5 86.5t162.5 31.5q79 0 149 -24.5t122.5 -68.5t82.5 -106.5t30 -138.5 q0 -70 -30.5 -149t-77 -156.5t-103.5 -148t-109 -122.5l256 -384q20 45 35 123.5t29 196.5h256q0 -49 -14.5 -115t-38 -133.5t-51.5 -130t-55 -103.5q10 -13 27 -29.5t38.5 -30.5t45.5 -24t48 -10v-274q-48 0 -90.5 14.5t-81.5 38.5t-75.5 55.5t-72.5 66.5q-33 -42 -76 -75 t-92.5 -55t-104.5 -33.5t-111 -11.5zM545 1024q16 20 34.5 52t36 71.5t33.5 83.5t28.5 87t19.5 83t7 71q0 57 -34 92.5t-94 35.5q-32 0 -56 -16t-40 -42.5t-24 -61.5t-8 -72q0 -35 8.5 -82.5t22 -100t31 -105t35.5 -96.5zM481 704q-21 -28 -39 -66t-31 -81t-20 -87.5 t-7 -85.5q0 -39 7 -73.5t22 -61t39.5 -42t59.5 -15.5q48 0 89 20t71 44q35 28 64 64l-123 183l-46 69l-41 62l-30 46q-12 18 -15 24z" />
<glyph unicode="'" horiz-adv-x="384" d="M62 1792h256l-64 -384h-128z" />
<glyph unicode="(" horiz-adv-x="640" d="M128 896q0 195 13 342t38.5 253.5t63.5 177t87.5 112t111 58.5t134.5 17v-192q-38 0 -67 -14t-50 -48t-35.5 -91t-23.5 -142t-12.5 -202t-3.5 -271t3.5 -271t12.5 -202t23.5 -142t35.5 -91t50 -48t67 -14v-192q-73 0 -134.5 17t-111 58.5t-87.5 112t-63.5 177 t-38.5 253.5t-13 342z" />
<glyph unicode=")" horiz-adv-x="640" d="M512 896q0 -195 -13 -342t-38.5 -253.5t-63.5 -177t-87.5 -112t-111 -58.5t-134.5 -17v192q38 0 67 14t50 48t35.5 91t23.5 142t12.5 202t3.5 271t-3.5 271t-12.5 202t-23.5 142t-35.5 91t-50 48t-67 14v192q73 0 134.5 -17t111 -58.5t87.5 -112t63.5 -177t38.5 -253.5 t13 -342z" />
<glyph unicode="*" horiz-adv-x="896" d="M343 904l-152 90l172 243l-257 98l61 161l245 -132l-28 300h192l-29 -300l246 132l61 -161l-257 -99l172 -242l-152 -90l-137 277z" />
<glyph unicode="+" horiz-adv-x="704" d="M256 384v192h-192v192h192v192h192v-192h192v-192h-192v-192h-192z" />
<glyph unicode="," horiz-adv-x="512" d="M128 256h256q0 -144 -3 -242t-21 -158t-57 -86t-111 -26l-64 128q48 0 74 13.5t38 33.5t14 42t2 39h-128v256z" />
<glyph unicode="-" horiz-adv-x="384" d="M0 640h384v-192h-384v192z" />
<glyph unicode="." horiz-adv-x="384" d="M64 256h256v-256h-256v256z" />
<glyph unicode="/" horiz-adv-x="832" d="M575 1792h257l-576 -1792h-256z" />
<glyph unicode="0" horiz-adv-x="1152" d="M576 -18q-86 0 -167 29.5t-143.5 93.5t-100 164.5t-37.5 242.5v768q0 121 24.5 207t63.5 145t88 94t99 54t95.5 24.5t77.5 5.5t77.5 -5.5t95.5 -24.5t99 -54t88 -94t63.5 -145t24.5 -207v-768q0 -142 -37.5 -242.5t-100 -164.5t-143.5 -93.5t-167 -29.5zM576 192 q42 0 73 16t52 42t34.5 60t20.5 69.5t9.5 70t2.5 62.5v768q0 29 -1.5 64t-8 70.5t-18.5 69t-33.5 59.5t-53.5 41.5t-77 15.5t-77 -15.5t-53.5 -41.5t-33.5 -59.5t-18.5 -69t-8 -70.5t-1.5 -64v-768q0 -28 2.5 -62.5t9.5 -70t20.5 -69.5t34.5 -60t52 -42t73 -16z" />
<glyph unicode="1" horiz-adv-x="640" d="M64 1600q55 20 104 48q42 24 85 60t67 84h192v-1792h-256v1408h-192v192z" />
<glyph unicode="2" horiz-adv-x="1089" d="M97 1216v64q0 120 25 218t79 167t139 107t205 38t205 -37t139 -100t79 -148t25 -181q0 -72 -11.5 -135t-35.5 -123.5t-60 -122t-85 -131.5l-448 -576h640v-256h-897v256l449 640q68 97 106.5 166.5t57.5 120.5t23.5 89t4.5 72q0 48 -12 94t-36 82t-60 58t-84 22t-84 -23 t-60 -65t-36 -101t-12 -131v-64h-256z" />
<glyph unicode="3" horiz-adv-x="1088" d="M544 -18q-120 0 -205 37t-139 100t-79 148t-25 181v64h256q0 -96 12 -158t36 -98t60 -50t84 -14t84 14t60 50t36 98t12 158q0 72 -13 131t-43 101t-79 65t-121 23v256q72 0 121 13t79 43t43 79t13 121t-12 121t-36 79t-60 43t-84 13t-84 -14t-60 -50t-36 -98t-12 -158 h-256v64q0 96 25 181t79 148t139 100t205 37t205 -37t139 -100t79 -148t25 -181q0 -60 -11 -108.5t-29 -86.5t-41 -67t-47 -50q-56 -49 -128 -72q72 -24 128 -80q24 -24 47 -57.5t41 -78.5t29 -102.5t11 -129.5q0 -120 -25 -218t-79 -167t-139 -107t-205 -38z" />
<glyph unicode="4" horiz-adv-x="1126" d="M608 460h-512v285l448 1048h320v-1091h198v-242h-198v-460h-256v460zM608 702l32 770l-288 -770h256z" />
<glyph unicode="5" horiz-adv-x="1152" d="M960 1536h-560l-16 -434q29 18 68 32q33 12 80 22t108 10q107 0 180.5 -38.5t118.5 -108.5t65 -166.5t20 -212.5q0 -73 -6 -150t-23 -150t-48 -138.5t-81.5 -114t-122.5 -77t-172 -28.5q-136 0 -222 42t-135 114t-67.5 168.5t-18.5 205.5h256v-40q0 -52 5 -103 t22.5 -91.5t52 -66t93.5 -25.5q66 0 107 26t64 77t31.5 127.5t8.5 178.5q0 76 -1.5 145t-18 121t-56 82.5t-115.5 30.5q-36 0 -67 -14.5t-55.5 -36.5t-42 -48t-26.5 -49h-218v966h792v-256z" />
<glyph unicode="6" horiz-adv-x="1152" d="M576 -18q-96 0 -178 39t-142 114t-94 186t-34 255v576q0 144 25 265t79 208t139 136t205 49q96 0 178 -28t142 -85t94 -145t34 -208h-256q0 72 -11.5 121t-35.5 79t-60 43t-85 13q-192 0 -192 -384v-256q21 36 56 64q30 24 79 44t121 20q120 0 195 -44t117 -116t57 -164 t15 -188q0 -120 -25 -228t-79 -189t-139 -129t-205 -48zM384 512q0 -72 12 -131t36 -101t60 -65t84 -23t84 23t60 65t36 101t12 131t-3 141t-21 123t-57 87t-111 33q-48 0 -84 -20t-60 -44q-28 -28 -48 -64v-256z" />
<glyph unicode="7" horiz-adv-x="845" d="M64 1792h717v-123l-326 -1669h-246l328 1579h-473v213z" />
<glyph unicode="8" horiz-adv-x="1088" d="M545 1600q-51 0 -82.5 -23t-49 -59.5t-24 -82t-6.5 -91.5q0 -48 5 -98t22 -90.5t49 -66.5t86 -26t85.5 26t48 66.5t21.5 90.5t5 98q0 46 -6.5 91.5t-24 82t-48.5 59.5t-81 23zM545 1810q106 0 185.5 -32.5t131.5 -93t78 -146.5t26 -194q0 -59 -6.5 -114t-25 -105.5 t-51 -95t-84.5 -83.5q45 -30 80.5 -65t60.5 -84.5t38.5 -119t13.5 -166.5q0 -120 -23 -217.5t-76 -166.5t-138.5 -107t-209.5 -38q-125 0 -210.5 38t-138.5 107t-76.5 166.5t-23.5 217.5q0 97 13.5 166t38.5 119t61 85.5t81 64.5q-52 39 -84.5 83.5t-51 95t-25.5 105.5 t-7 114q0 108 26 194t78.5 146.5t132 93t186.5 32.5zM545 192q72 0 110.5 32t56.5 80t21 103.5t3 103.5q0 47 -6 101t-25.5 99.5t-57.5 76t-102 30.5q-65 0 -103 -30.5t-58 -76t-26 -99.5t-6 -101q0 -48 3 -103.5t21 -103.5t57.5 -80t111.5 -32z" />
<glyph unicode="9" horiz-adv-x="1152" d="M576 1810q96 0 178 -39t142 -114t94 -186t34 -255v-576q0 -144 -25 -265t-79 -208t-139 -136t-205 -49q-96 0 -178 28t-142 85t-94 145t-34 208h256q0 -72 11.5 -121t35.5 -79t60 -43t85 -13q192 0 192 384v256q-21 -36 -56 -64q-30 -24 -79 -44t-121 -20q-120 0 -195 44 t-117 116t-57 164t-15 188q0 120 25 228t79 189t139 129t205 48zM768 1280q0 72 -12 131t-36 101t-60 65t-84 23t-84 -23t-60 -65t-36 -101t-12 -131t3 -141t21 -123t57 -87t111 -33q48 0 84 20t60 44q28 28 48 64v256z" />
<glyph unicode=":" horiz-adv-x="439" d="M128 1088h256v-256h-256v256zM128 512h256v-256h-256v256z" />
<glyph unicode=";" horiz-adv-x="384" d="M64 1088h256v-256h-256v256zM64 512h256q0 -144 -3 -242t-21 -158t-57 -86t-111 -26l-64 128q48 0 74 13.5t38 33.5t14 42t2 39h-128v256z" />
<glyph unicode="&#x3c;" horiz-adv-x="832" d="M64 768l640 448v-256l-448 -319l448 -321v-256l-640 448v256z" />
<glyph unicode="=" horiz-adv-x="704" d="M64 576v192h576v-192h-576zM64 255v192h576v-192h-576z" />
<glyph unicode="&#x3e;" horiz-adv-x="832" d="M768 512l-640 -448v256l448 321l-448 319v256l640 -448v-256z" />
<glyph unicode="?" horiz-adv-x="1152" d="M384 384v320q120 72 195 143t117 137t57 125t15 107q0 192 -192 192q-48 0 -84 -13t-60 -43t-36 -79t-12 -121h-256v64q0 120 34 205t94 139t142 79t178 25q120 0 205.5 -34t139.5 -94t79 -142t25 -178q0 -193 -95.5 -338t-289.5 -238v-256h-256zM384 256h256v-256h-256 v256z" />
<glyph unicode="@" horiz-adv-x="1782" d="M958 945q-1 14 -7 25q-5 10 -16 18t-31 8q-48 0 -75.5 -25t-41 -67t-16.5 -97t-3 -114q0 -53 9 -89t25 -59t37 -33t45 -10q28 0 43 6t22 14q8 9 9 20v403zM1011 420q-16 -36 -41 -64q-21 -24 -53 -44t-77 -20q-62 0 -110.5 19t-85 51t-62 73.5t-41 86t-22.5 89t-7 82.5 q0 129 25 224t67 157.5t97 92.5t115 30q27 0 47 -6t35 -15.5t25 -21.5t17 -25q16 -30 18 -68v127h256v-568q0 -19 1 -40t7 -38t20 -28.5t40 -11.5q23 0 44 14.5t37 46.5t25.5 82.5t9.5 122.5q0 170 -33.5 287t-98 189t-157.5 104t-213 32q-49 0 -105.5 -10t-113.5 -35 t-110 -69t-93.5 -112t-65 -163t-24.5 -223q0 -160 24.5 -274.5t67 -192.5t99.5 -125t120.5 -72t131 -32.5t131.5 -7.5q45 0 96.5 8t96.5 19q52 12 103 28l94 -196q-68 -15 -137 -26q-59 -10 -127 -17.5t-126 -7.5q-207 0 -362.5 50t-259.5 158t-156 278t-52 410 q0 192 56.5 341.5t158.5 252.5t243 156.5t310 53.5q180 0 321 -53.5t238 -156.5t148 -252.5t51 -341.5q0 -112 -23 -191t-58.5 -131.5t-78.5 -83.5t-84 -46.5t-74.5 -19.5t-49.5 -4q-75 0 -127.5 20t-85.5 44q-39 28 -62 64z" />
<glyph unicode="A" horiz-adv-x="1152" d="M416 448l-96 -448h-256l384 1792h256l384 -1792h-256l-96 448h-320zM704 640l-128 768l-128 -768h256z" />
<glyph unicode="B" horiz-adv-x="1184" d="M512 1792q112 0 196 -20t144.5 -53.5t100.5 -78.5t63 -94.5t32.5 -101.5t9.5 -100q0 -72 -12.5 -132t-45.5 -108t-89 -84t-143 -60q72 -24 131 -58t101 -85.5t65 -125.5t23 -179q0 -113 -35 -207t-101 -161.5t-161 -105.5t-215 -38h-448v1792h384zM384 192h128 q72 0 131 14t101 50t65 98t23 158t-23 158t-65 98t-101 50t-131 14h-128v-640zM384 1024h128q32 0 68 4t71.5 15.5t68.5 33t57.5 57t39.5 87t15 123.5q0 96 -34 148t-94 76t-142 28t-178 4v-576z" />
<glyph unicode="C" horiz-adv-x="1216" d="M1120 640v-64q0 -120 -26 -228t-86 -189t-158 -129t-242 -48t-242 49t-158 136.5t-86 208.5t-26 265v511q0 144 26 265t86 208t158 136t242 49q136 0 233.5 -43.5t159 -121.5t90.5 -187.5t29 -241.5h-256q0 96 -13 168t-43 120t-79 72t-121 24t-121 -24t-79 -72t-43 -120 t-13 -168v-640q0 -72 13 -141t43 -123t79 -87t121 -33t121 33t79 87t43 123t13 141v64h256z" />
<glyph unicode="D" horiz-adv-x="1120" d="M128 0v1792h384q144 0 242 -26t158 -86t86 -158t26 -242v-704q0 -144 -26 -252t-86 -180t-158.5 -108t-243.5 -36h-382zM512 192q96 0 148 25t76 79t28 139t4 205v576q0 96 -4 168t-28.5 120t-77.5 72t-151 24h-123v-1408h128z" />
<glyph unicode="E" horiz-adv-x="896" d="M704 832h-320v-640h448v-192h-704v1792h704v-192h-448v-576h320v-192z" />
<glyph unicode="F" horiz-adv-x="896" d="M832 1600h-448v-576h320v-192h-320v-832h-256v1792h704v-192z" />
<glyph unicode="G" horiz-adv-x="1216" d="M864 1216q0 96 -13 168t-43 120t-79 72t-121 24t-121 -24t-79 -72t-43 -120t-13 -168v-576q0 -144 22 -232t58 -136t82 -64t94 -16t94 16t82 64t58 136t22 232v64h-256v192h512v-896h-192l-64 192q-21 -59 -56 -105q-15 -20 -34.5 -39t-44.5 -33.5t-55 -23.5t-66 -9 q-80 0 -149 13.5t-126 45.5t-101 85t-74.5 133t-46 188t-15.5 251v454q0 144 26 265t86 208t158 136t242 49q127 0 222.5 -39.5t160 -115t97 -186.5t32.5 -253h-256z" />
<glyph unicode="H" horiz-adv-x="1216" d="M832 832h-448v-832h-256v1792h256v-768h448v768h256v-1792h-256v832z" />
<glyph unicode="I" horiz-adv-x="512" d="M128 1792h256v-1792h-256v1792z" />
<glyph unicode="J" horiz-adv-x="640" d="M512 1792v-1344q0 -120 -15 -205t-57 -139t-117 -79t-195 -25h-128v192q72 0 121 4t79 28t43 76t13 148v1344h256z" />
<glyph unicode="K" horiz-adv-x="1216" d="M1152 0h-320l-320 832l-128 -256v-576h-256v1792h256v-768l384 768h320l-385 -704z" />
<glyph unicode="L" horiz-adv-x="896" d="M128 0v1792h256v-1600h448v-192h-704z" />
<glyph unicode="M" horiz-adv-x="1472" d="M640 0l-256 1414v-1414h-256v1792h354l254 -1372l254 1372h354v-1792h-256v1414l-256 -1414h-192z" />
<glyph unicode="N" horiz-adv-x="1152" d="M842 0l-458 1192v-1192h-256v1792h192l448 -1108v1108h256v-1792h-182z" />
<glyph unicode="O" horiz-adv-x="1216" d="M1120 576q0 -120 -25 -228t-84 -189t-157.5 -129t-245.5 -48q-100 0 -177 22t-133.5 61t-95.5 94t-62.5 121t-33.5 141t-10 155v640q0 80 10 155t33.5 141t62.5 121t95.5 94t133.5 61t177 22q147 0 245.5 -48t157.5 -129t84 -189t25 -228v-640zM352 512q0 -72 13 -131 t43 -101t79 -65t121 -23t121 23t79 65t43 101t13 131v768q0 72 -13 131t-43 101t-79 65t-121 23t-121 -23t-79 -65t-43 -101t-13 -131v-768z" />
<glyph unicode="P" horiz-adv-x="1088" d="M576 1792q120 0 205 -35t139 -101t79 -161t25 -215t-34 -205t-94 -139t-142 -79t-178 -25h-192v-832h-256v1792h448zM448 1024q96 0 158 13t98 43t50 79t14 121t-5 131t-35 101t-95 65t-185 23h-64v-576h64z" />
<glyph unicode="Q" horiz-adv-x="1216" d="M1120 576q0 -120 -25 -228t-84 -189q-40 -55 -99 -95q24 -24 60 -44t84 -20v-192q-48 0 -90.5 14t-81.5 39t-76 61q-34 33 -67 72q-61 -12 -133 -12q-100 0 -177 22t-133.5 61t-95.5 94t-62.5 121t-33.5 141t-10 155v640q0 80 10 155t33.5 141t62.5 121t95.5 94t133.5 61 t177 22q147 0 245.5 -48t157.5 -129t84 -189t25 -228v-640zM352 512q0 -72 13 -131t43 -101t79 -65t121 -23t121 23t79 65t43 101t13 131v768q0 72 -13 131t-43 101t-79 65t-121 23t-121 -23t-79 -65t-43 -101t-13 -131v-768z" />
<glyph unicode="R" horiz-adv-x="1152" d="M834 0l-258 832h-192v-832h-256v1792h320q168 0 279 -34.5t177 -97.5t93 -151.5t27 -196.5q0 -66 -9.5 -119t-25.5 -94.5t-36 -73t-41 -53.5q-49 -53 -112 -76l288 -896h-254zM384 1024h64q72 0 131 13.5t101 46.5t65 88.5t23 139.5t-23 139.5t-65 88.5t-101 46.5 t-131 13.5h-64v-576z" />
<glyph unicode="S" horiz-adv-x="1153" d="M609 -18q-96 0 -169 22.5t-127 60t-91 85t-61 97.5q-56 116 -64 265l256 64q4 -108 32 -192q12 -36 30.5 -70.5t45.5 -61.5t63.5 -43.5t84.5 -16.5q192 0 192 192q0 48 -12 89.5t-36 80t-60 75t-84 75.5l-320 256q-49 39 -85.5 88.5t-60.5 104.5t-35.5 112t-11.5 113 q0 86 29 164.5t85.5 138t140.5 94.5t194 35q96 0 169 -20t127 -53t91 -75t61 -85q56 -103 64 -233l-256 -64q-4 90 -32 160q-12 30 -30.5 58.5t-45.5 51t-63.5 36.5t-84.5 14q-50 0 -86.5 -15.5t-60 -41.5t-34.5 -61t-11 -74q0 -66 31 -135t97 -121l320 -256 q61 -49 108.5 -107.5t80.5 -122.5t50 -131.5t17 -133.5q0 -83 -27 -158.5t-82.5 -133.5t-139.5 -92.5t-199 -34.5z" />
<glyph unicode="T" d="M960 1792v-228h-320v-1564h-256v1564h-320v228h896z" />
<glyph unicode="U" horiz-adv-x="1280" d="M640 -19q-112 0 -193.5 26.5t-138.5 73t-92 110t-54.5 136.5t-26.5 153t-7 160v1152h256v-1152q0 -48 1 -100t8.5 -101.5t22.5 -94.5t43.5 -78.5t72.5 -53.5t108 -20t108 20t72.5 53.5t43.5 78.5t22.5 94.5t8.5 101.5t1 100v1152h256v-1152q0 -80 -7 -160t-26.5 -153 t-54.5 -136.5t-92 -110t-138.5 -73t-193.5 -26.5z" />
<glyph unicode="V" horiz-adv-x="1152" d="M643 832l189 960h256l-384 -1792h-256l-384 1792h256l189 -960l66 -448z" />
<glyph unicode="W" horiz-adv-x="1664" d="M960 1792l128 -832l63 -512l65 512l128 832h256l-320 -1792h-256l-128 832l-64 512l-64 -512l-128 -832h-256l-320 1792h256l128 -832l65 -512l63 512l128 832h256z" />
<glyph unicode="X" horiz-adv-x="1152" d="M576 768l-254 -768h-256l318 929l-320 863h256l256 -704l256 704h256l-320 -859l316 -933h-254z" />
<glyph unicode="Y" horiz-adv-x="1152" d="M448 0v576l-384 1216h256l256 -896l256 896h256l-384 -1216v-576h-256z" />
<glyph unicode="Z" horiz-adv-x="960" d="M320 192h576v-192h-832v192l576 1408h-512v192h768v-192z" />
<glyph unicode="[" horiz-adv-x="768" d="M128 1856h512v-128h-256v-1664h256v-128h-512v1920z" />
<glyph unicode="\" horiz-adv-x="576" d="M512 0h-256l-192 1792h256z" />
<glyph unicode="]" horiz-adv-x="768" d="M640 -64h-512v128h256v1664h-256v128h512v-1920z" />
<glyph unicode="^" horiz-adv-x="896" d="M576 1536l256 -640h-256l-129 448l-127 -448h-256l256 640h256z" />
<glyph unicode="_" horiz-adv-x="768" d="M0 192h768v-192h-768v192z" />
<glyph unicode="`" horiz-adv-x="640" d="M128 1792h256l128 -384h-128z" />
<glyph unicode="a" horiz-adv-x="993" d="M352 -18q-48 0 -94 25t-82 67t-58 96t-22 113q0 49 5 94t23 87.5t51.5 83.5t90.5 82.5t140.5 84.5t201.5 89v92q0 72 -11 111t-29 57t-41 21t-47 3t-47 -3t-41 -21t-29 -57t-11 -111h-256q1 91 28.5 165.5t77.5 127t120.5 81t157.5 28.5q103 0 175.5 -36t119 -93t68 -129 t21.5 -144v-576q0 -72 5 -131t11 -101q4 -25 8 -46.5t9 -41.5h-255l-34 192q-24 -48 -49 -87t-55 -66t-67 -42t-85 -15zM352 351q0 -48 11 -78.5t29 -48.5t41 -25t47 -7t47 14.5t41 32.5q11 10 20.5 21.5t19.5 25.5v354l-113 -77q-48 -34 -79.5 -67t-47.5 -67.5t-16 -77.5z " />
<glyph unicode="b" horiz-adv-x="1056" d="M384 232q57 -23 109 -31.5t83 -8.5q39 0 64 26.5t39 87t19.5 158.5t5.5 241q0 84 -2 154.5t-14 121t-38 79t-74 28.5t-100 -13.5t-92 -37.5v-805zM384 1153q49 52 89 81.5t71.5 43.5t56 17t43.5 3q90 0 150.5 -38.5t97 -124.5t52.5 -223t16 -335q0 -58 -6.5 -124.5 t-21 -132.5t-39 -127.5t-60 -108t-83.5 -74.5t-110 -28q-37 0 -72 11t-67.5 29.5t-62 43t-54.5 50.5v-116h-256v1664h256v-511z" />
<glyph unicode="c" horiz-adv-x="960" d="M480 -18q-96 0 -162 31t-108.5 82.5t-65.5 119.5t-33.5 141t-12.5 146.5t-2 137.5t2 137.5t12.5 146.5t33.5 141t65.5 119.5t108.5 82.5t162 31q98 0 164.5 -25.5t109 -66.5t65.5 -93t33 -103.5t11 -98.5t1 -79h-256q0 16 -0.5 41t-3.5 53.5t-10.5 57.5t-22 52 t-36.5 37.5t-55 14.5q-48 0 -74 -34t-38 -94t-14 -142t-2 -178t2 -178t14 -142t38 -94t74 -34t74 22t38 58t14 82t2 94h256q0 -32 -2 -79t-13.5 -98.5t-35 -103.5t-66 -93t-108 -66.5t-159.5 -25.5z" />
<glyph unicode="d" horiz-adv-x="1056" d="M672 1037q-40 24 -92 37.5t-100 13.5t-74 -28.5t-38 -79t-14 -121t-2 -154.5q0 -143 5.5 -241t19.5 -158.5t39 -87t64 -26.5q31 0 83 8.5t109 31.5v805zM672 1664h256v-1664h-256v116q-25 -26 -54.5 -50.5t-62 -43t-68 -29.5t-71.5 -11q-62 0 -110 28t-83.5 74.5t-60 108 t-39 127.5t-21 132.5t-6.5 124.5q0 198 16 335t52.5 223t97 124.5t150.5 38.5q19 0 43.5 -3t56 -17t71 -43t89.5 -82v511z" />
<glyph unicode="e" horiz-adv-x="960" d="M479 -18q-96 0 -167.5 31.5t-119.5 109.5t-72 211t-24 336q0 181 24 301.5t72 193t120 103t168 30.5t168 -30.5t120 -103t72 -193t24 -301.5v-30h-512v-64q0 -72 2 -141t14 -123t38 -87t74 -33q49 0 75 22t38 58t14 82t2 94h255q0 -240 -96 -353t-289 -113zM480 1088 q-48 0 -74 -32t-38 -80t-14 -104t-2 -104h256q0 48 -1.5 104t-13.5 104t-38 80t-75 32z" />
<glyph unicode="f" horiz-adv-x="704" d="M192 1088h-128v192h128v49q0 43 0.5 89.5t8 90.5t24 84t49 70t83 47.5t125.5 17.5q36 0 70 -2.5t88 -9.5v-190q-18 2 -35 5q-14 2 -28.5 3.5t-22.5 1.5q-36 0 -57.5 -13t-32 -35t-13.5 -51t-3 -61v-96h192v-192h-192v-1088h-256v1088z" />
<glyph unicode="g" horiz-adv-x="1088" d="M1024 1088q-38 0 -67 -10t-50 -22q-13 -7 -23.5 -15t-19.5 -17q8 -23 16 -56q6 -26 11 -61t5 -75q0 -96 -24 -180.5t-72 -147.5t-120 -99.5t-168 -36.5q-17 0 -39 2q-26 2 -42 5l-48 8q-6 -12 -11.5 -19.5t-11.5 -20.5t-9 -21t-3 -21q0 -30 29 -46.5t80.5 -24.5 t109 -10.5t120.5 -12t123.5 -26.5t108 -47t76.5 -78t29 -120q0 -75 -24.5 -124.5t-63.5 -85t-88 -57t-99 -33t-95.5 -15.5t-77.5 -4q-35 0 -87 1t-108.5 6t-113 17t-102 33t-73.5 54t-28 77q0 24 6.5 58.5t30.5 84.5t65.5 83.5t89.5 57.5q-60 17 -94 47t-34 58.5t13.5 64 t33 70.5t41.5 66l40 53q-34 40 -58.5 86t-40 95t-22.5 100.5t-7 102.5q0 120 33 208t87 145t123 85t141 28q48 0 87 -8t72 -25.5t61.5 -46.5t55.5 -71q13 24 33.5 50.5t49.5 49t67 37t86 14.5v-210zM796 -66q-14 76 -201 98l-211 25q-52 -41 -84 -134q-10 -30 -10 -58 q0 -24 22.5 -37t74 -16.5t97 -4.5t92.5 -1q24 0 62 1.5t74 10t62 31t26 52.5q0 15 -4 33zM352 832q0 -48 7 -96.5t25 -87.5t49 -63.5t79 -24.5t79 24.5t49 63.5t25 87.5t7 96.5t-7 99t-25 93t-49 69t-79 27t-79 -27t-49 -69t-25 -93t-7 -99z" />
<glyph unicode="h" d="M128 1792h256v-650q64 58 115 90t90.5 46.5t69.5 17t53 2.5q42 0 76 -17.5t58 -46.5t37 -66.5t13 -76.5v-1091h-256v960q0 24 -1.5 47t-9.5 41t-26 29t-51 11q-49 0 -90.5 -22.5t-77.5 -52.5v-1013h-256v1792z" />
<glyph unicode="i" horiz-adv-x="512" d="M128 1280h256v-1280h-256v1280zM128 1728h256v-256h-256v256z" />
<glyph unicode="j" horiz-adv-x="576" d="M0 -121q14 -3 33 -5t31 -2q48 0 74 18.5t38 43t14 49.5t2 38v1259h256v-1287q0 -77 -24 -135.5t-67 -98t-101.5 -59.5t-127.5 -20q-13 0 -29.5 1t-34 3t-34 5t-30.5 8v182zM192 1728h256v-256h-256v256z" />
<glyph unicode="k" horiz-adv-x="960" d="M384 1792v-985l320 473h256l-287 -447l287 -833h-256l-192 619l-128 -171v-448h-256v1792h256z" />
<glyph unicode="l" horiz-adv-x="512" d="M384 0h-256v1792h256v-1792z" />
<glyph unicode="m" horiz-adv-x="1536" d="M640 929q0 36 -1 65t-7 50t-19 32.5t-37 11.5q-37 0 -71 -13t-61 -28q-16 -9 -31 -19t-29 -21v-1007h-256v1280h256v-145q37 45 87 81q42 31 100.5 56.5t131.5 25.5q37 0 68.5 -6t56 -24.5t42 -51.5t26.5 -87q48 63 95 97.5t89 50t77 18.5t59 3q72 0 111 -26.5t57 -74.5 t21 -116t3 -150v-931h-256v934q0 34 -1 62t-7 48.5t-19 32t-37 11.5q-36 0 -70.5 -13.5t-61.5 -29.5q-16 -10 -31 -20.5t-29 -22.5v-1002h-256v929z" />
<glyph unicode="n" horiz-adv-x="992" d="M128 1280h256v-138q64 58 115 90t90.5 46.5t69.5 17t53 2.5q42 0 76 -17.5t58 -46.5t37 -66.5t13 -76.5v-1091h-256v960q0 24 -1.5 47t-10.5 41t-28.5 29t-55.5 11q-49 0 -86.5 -22.5t-73.5 -52.5v-1013h-256v1280z" />
<glyph unicode="o" horiz-adv-x="960" d="M96 832q0 32 2 79t12.5 98.5t33.5 103.5t65.5 93t108.5 66.5t162 25.5t162 -25.5t108.5 -66.5t65.5 -93t33.5 -103.5t12.5 -98.5t2 -79v-384q0 -32 -2 -79t-12.5 -98.5t-33.5 -103.5t-65.5 -93t-108.5 -66.5t-162 -25.5t-162 25.5t-108.5 66.5t-65.5 93t-33.5 103.5 t-12.5 98.5t-2 79v384zM352 448q0 -48 2 -94t14 -82t38 -58t74 -22t74 22t38 58t14 82t2 94v384q0 48 -2 94t-14 82t-38 58t-74 22t-74 -22t-38 -58t-14 -82t-2 -94v-384z" />
<glyph unicode="p" horiz-adv-x="1056" d="M128 1280h256v-128q50 53 89.5 82.5t71 43.5t56 17t43.5 3q90 0 150.5 -38.5t97 -124.5t52.5 -223.5t16 -335.5q0 -58 -6.5 -124.5t-21 -132.5t-39 -127t-60 -107.5t-83.5 -74.5t-110 -28q-36 0 -71.5 11t-68 29.5t-62 42.5t-54.5 50v-499h-256v1664zM384 244 q57 -33 109 -42.5t83 -9.5q39 0 64 26.5t39 86.5t19.5 158t5.5 241q0 84 -5.5 156.5t-22 126t-46 84t-77.5 30.5t-88.5 -20.5t-80.5 -44.5v-792z" />
<glyph unicode="q" horiz-adv-x="1056" d="M928 -384h-256v499q-25 -26 -54.5 -50t-62 -42.5t-68 -29.5t-71.5 -11q-62 0 -110 28t-83.5 74.5t-60 107.5t-39 127t-21 132.5t-6.5 124.5q0 198 16 335.5t52.5 223.5t97 124.5t150.5 38.5q19 0 43.5 -3t56 -17t71 -43.5t89.5 -82.5v128h256v-1664zM672 1036 q-40 24 -80.5 44.5t-88.5 20.5t-77.5 -30.5t-46 -84t-22 -126t-5.5 -156.5q0 -143 5.5 -241t19.5 -158t39 -86.5t64 -26.5q31 0 83 9.5t109 42.5v792z" />
<glyph unicode="r" horiz-adv-x="704" d="M384 1280v-171h14q19 37 47 71t62 60t73.5 42t82.5 16q3 0 9.5 -0.5t13.5 -1.5l18 -2v-283q-32 13 -70 20.5t-72 7.5q-38 0 -70.5 -12.5t-56.5 -35.5t-37.5 -55.5t-13.5 -71.5v-864h-256v1280h256z" />
<glyph unicode="s" horiz-adv-x="960" d="M288 384q20 -54 48 -96q12 -18 27 -35.5t33 -31t39 -21.5t45 -8t47 6.5t41 21.5t29 39.5t11 60.5t-10 63.5t-22 46.5q-14 22 -32 38l-256 192q-62 43 -100 83.5t-58.5 78t-27 72t-6.5 66.5q0 72 24 134t72 107t120 71t168 26q60 0 108.5 -14.5t86.5 -38.5t67 -54.5 t50 -61.5q49 -75 72 -169l-192 -64q-20 54 -48 96q-12 18 -27 35t-33 30.5t-39 22t-45 8.5t-47 -6.5t-41 -21.5t-29 -39.5t-11 -60.5q0 -24 10 -44t22 -34q14 -17 32 -30l256 -192q91 -73 141.5 -155.5t50.5 -184.5q0 -72 -24 -134t-72 -107t-120 -71t-168 -26 q-60 0 -108.5 14.5t-87 38t-67 54t-49.5 62.5q-49 74 -72 169z" />
<glyph unicode="t" horiz-adv-x="704" d="M192 1728h256v-448h192v-192h-192v-747q0 -32 3 -59.5t13.5 -47.5t32 -31t57.5 -11q8 0 22.5 1.5t28.5 3.5q17 2 35 5v-208q-54 -7 -88 -9.5t-70 -2.5q-75 0 -125.5 17.5t-83 47.5t-49 70t-24 84t-8 90.5t-0.5 89.5v707h-128v192h128v448z" />
<glyph unicode="u" d="M896 0h-256v138q-65 -59 -115.5 -90.5t-90 -46t-69.5 -17t-53 -2.5q-42 0 -76 17.5t-58 46.5t-37 66.5t-13 76.5v1091h256v-1013q0 -42 25.5 -66t62.5 -24q24 0 46.5 8.5t43.5 21.5t40 29l38 31v1013h256v-1280z" />
<glyph unicode="v" horiz-adv-x="928" d="M352 0l-288 1280h256l160 -960l160 960h256l-286 -1280h-258z" />
<glyph unicode="w" horiz-adv-x="1406" d="M704 832l-128 -832h-256l-256 1280h256l128 -832l128 832h254l128 -832l128 832h256l-256 -1280h-256z" />
<glyph unicode="x" horiz-adv-x="960" d="M320 640v64l-256 576h256l128 -384l32 -128l32 128l128 384h256l-256 -576v-64l256 -640h-256l-128 384l-32 128l-32 -128l-128 -384h-256z" />
<glyph unicode="y" horiz-adv-x="960" d="M481 384l31 192l128 704h256l-320 -1344q-17 -74 -53 -123.5t-92 -79t-131.5 -41.5t-171.5 -12v192q59 0 100.5 14t67.5 38.5t37.5 58t11.5 73.5q0 17 -1.5 35t-6.5 37l-273 1152h256l128 -704z" />
<glyph unicode="z" horiz-adv-x="830" d="M512 1088h-384v192h640v-192l-448 -896h448v-192h-704v192z" />
<glyph unicode="{" horiz-adv-x="704" d="M448 1408q0 -84 -8.5 -150.5t-22 -118.5t-30.5 -90t-35 -65q-42 -63 -96 -88q54 -23 96 -72q18 -21 35 -50t30.5 -67t22 -86.5t8.5 -108.5q0 -114 9 -188.5t30.5 -118t58.5 -60.5t94 -17v-192q-109 0 -192.5 24t-140.5 88.5t-86 176t-29 287.5q0 93 -5.5 144.5t-20 76.5 t-39 30t-63.5 5v256q39 0 63.5 17t39 60.5t20 118t5.5 188.5q0 103 13 176t38.5 123t63.5 79.5t87.5 45t111 20t134.5 4.5v-192q-57 0 -94 -5t-58.5 -30t-30.5 -76.5t-9 -144.5z" />
<glyph unicode="|" horiz-adv-x="384" d="M128 1920h192v-2048h-192v2048z" />
<glyph unicode="}" horiz-adv-x="704" d="M256 1408q0 93 -9 144.5t-30.5 76.5t-58.5 30t-94 5v192q73 0 134.5 -4.5t111 -20t87.5 -45t63.5 -79.5t38.5 -123t13 -176q0 -114 5.5 -188.5t20 -118t39 -60.5t63.5 -17v-256q-39 0 -63.5 -5t-39 -30t-20 -76.5t-5.5 -144.5q0 -176 -29 -287.5t-86 -176t-140.5 -88.5 t-192.5 -24v192q57 0 94 17t58.5 60.5t30.5 118t9 188.5q0 60 8 108.5t21.5 86.5t31 67t35.5 50q42 49 96 72q-54 25 -96 88q-18 27 -35.5 65t-31 90t-21.5 118.5t-8 150.5z" />
<glyph unicode="~" horiz-adv-x="960" d="M347 1105q39 0 78.5 -13.5t76.5 -29.5l70 -30q32 -14 56 -13q23 0 37 15.5t14 53.5h153q1 -5 0 -27.5t-7 -53.5t-19 -65t-37.5 -63t-62.5 -48t-93 -19q-42 0 -83 14q-42 14 -78 30l-68 30q-32 14 -55 13q-23 0 -35.5 -14.5t-12.5 -52.5h-153q-1 6 0 28.5t7 52.5t19 64 t37.5 62.5t62.5 47t93 18.5z" />
<glyph unicode="&#xa1;" horiz-adv-x="384" d="M128 1152h128l64 -1152h-256zM64 1536h256v-256h-256v256z" />
<glyph unicode="&#xa2;" horiz-adv-x="1027" d="M449 -15q-76 7 -129 30.5t-88.5 61t-56 86.5t-31 107.5t-13 124.5t-2.5 137v201q0 63 2.5 126.5t13 123t31 112.5t56 94.5t88.5 69t129 35.5v114h128v-114q82 -10 137.5 -41t91 -74.5t54 -94.5t27 -99t9.5 -89t1 -65l-256 1q0 37 -1 74t-7 69.5t-19 58t-37 39.5v-866 q24 15 37 41t19 61t7 76.5t1 87.5h256q0 -3 0.5 -14.5t0.5 -28.5q0 -29 -3.5 -70t-14.5 -87.5t-32 -93.5t-56.5 -87t-88 -68.5t-126.5 -37.5v-114h-128v113zM385 640q0 -105 1 -180.5t7 -127.5t19 -82t37 -44v865q-24 -17 -37 -50.5t-19 -86.5t-7 -126t-1 -168z" />
<glyph unicode="&#xa3;" horiz-adv-x="896" d="M0 960h128v192q0 64 2 137.5t12.5 146.5t33.5 141t65.5 119.5t108.5 82.5t162 31q83 0 139 -25.5t91.5 -66.5t54 -93t26.5 -103.5t8.5 -98.5t0.5 -79h-192q0 16 -0.5 41t-3.5 53.5t-10.5 57.5t-22 52t-36.5 37.5t-55 14.5q-48 0 -74 -34t-38 -94t-14 -142t-2 -178v-192 h256v-192h-256v-576h448v-192h-832v128l128 63v577h-128v192z" />
<glyph unicode="&#xa4;" d="M512 1280q73 0 130 -17t101 -46l86 86l90 -90l-87 -87q33 -50 48.5 -109t15.5 -120q0 -62 -15.5 -121.5t-48.5 -110.5l87 -86l-90 -90l-86 86q-44 -29 -101 -46t-130 -17t-130 17t-101 46l-86 -86l-90 90l86 86q-33 51 -48 110.5t-15 121.5q0 61 15 120t48 110l-86 86 l90 90l86 -86q44 29 101 46t130 17zM512 682q50 0 86.5 18.5t60 48.5t34.5 68.5t11 78.5t-11 78.5t-34.5 68.5t-59.5 48.5t-87 18.5t-87 -18t-59.5 -48t-34.5 -68.5t-11 -78.5t11 -78.5t34.5 -69t60 -49t86.5 -18.5z" />
<glyph unicode="&#xa5;" d="M384 0v256h-192v168h192v129h-192v166h149l-293 1073h260l204 -944l202 944h260l-295 -1073h153v-166h-192v-129h192v-168h-192v-256h-256z" />
<glyph unicode="&#xa6;" horiz-adv-x="395" d="M94 614h203v-628h-203v628zM94 1518h203v-629h-203v629z" />
<glyph unicode="&#xa7;" horiz-adv-x="960" d="M288 385q11 -31 28.5 -64.5t41.5 -62t54 -47t68 -18.5q24 0 47 6.5t41 21.5t29 39.5t11 60.5q0 58 -20.5 96t-43.5 52l-256 156q-65 39 -103 79t-57.5 78.5t-25.5 74.5t-6 68q0 101 46 180t140 121q-60 35 -97 68t-56.5 64t-26 59.5t-6.5 54.5q0 72 24 134t72 107t120 71 t168 26t163 -33.5t112 -84.5t71 -110t38 -110l-192 -64q-11 29 -27.5 62.5t-40.5 62.5t-54.5 48t-69.5 19q-24 0 -47 -6.5t-41 -21.5t-29 -39.5t-11 -60.5q0 -38 21.5 -65t42.5 -43q147 -81 235.5 -147.5t135.5 -124t62 -108.5t15 -102q0 -93 -39.5 -167t-118.5 -119 q75 -59 116.5 -127t41.5 -148q0 -72 -24 -134t-72 -107t-120 -71t-168 -26q-60 0 -108.5 14.5t-87 38t-67 54t-49.5 62.5q-49 73 -72 169zM608 882q0 14 -7 30t-18 32t-25 32l-30 30q-35 33 -80 68q-27 -17 -48 -39q-18 -19 -33 -46.5t-15 -63.5q0 -38 21 -66t43 -42l96 -63 q27 13 48 31q18 16 33 40t15 57z" />
<glyph unicode="&#xa8;" horiz-adv-x="896" d="M128 1792h256v-256h-256v256zM512 1792h256v-256h-256v256z" />
<glyph unicode="&#xa9;" horiz-adv-x="1528" d="M768 217q-73 0 -123.5 20.5t-83 56t-50 83.5t-25.5 104.5t-9.5 118t-1.5 123.5q0 53 2 107t11 105t27.5 95.5t51.5 78t83.5 52.5t123.5 19q70 0 118.5 -20t79.5 -52t48 -71t24.5 -76.5t9 -70t1.5 -50.5h-183q0 45 -4.5 81.5t-16 62t-30 39t-45.5 13.5q-35 0 -58.5 -7.5 t-37.5 -39t-19.5 -94.5t-5.5 -174q0 -99 2.5 -167t14 -110t34 -60.5t62.5 -18.5q37 0 58.5 20t32 51.5t13 69t2.5 72.5h179v-16q0 -18 -2.5 -50.5t-11.5 -71t-27 -78t-49.5 -72t-79 -53t-115.5 -20.5zM242 696q0 -117 41 -219.5t111.5 -179t166 -120.5t203.5 -44t203.5 44 t166 120.5t111.5 179t41 219.5q0 78 -18.5 150t-52.5 135t-81.5 114t-105.5 88t-125 57t-139 20t-139 -20t-125 -57t-105.5 -88t-81.5 -114t-52.5 -135t-18.5 -150zM70 700q0 99 25 190.5t70 171t108.5 144.5t140.5 111.5t165.5 72t184.5 25.5t184.5 -25.5t165.5 -72 t140.5 -111.5t108.5 -144.5t70 -171t25 -190.5t-25 -190t-70 -170.5t-108.5 -144.5t-140.5 -111.5t-165.5 -72t-184.5 -25.5t-184.5 25.5t-165.5 72t-140.5 111.5t-108.5 144.5t-70 170.5t-25 190z" />
<glyph unicode="&#xaa;" horiz-adv-x="842" d="M430 766q-35 -65 -84.5 -93t-99.5 -28q-38 0 -73 14.5t-61.5 40t-42.5 61t-16 77.5q0 28 4 54t17 50.5t38 48.5t66.5 48.5t103.5 49.5t148 52v94q0 48 -8 75.5t-20 41.5t-25 18t-23 4q-49 0 -69.5 -41t-20.5 -110h-178q1 70 22 124.5t57 92.5t85 58t108 20 q79 0 130.5 -21.5t81.5 -64.5t41.5 -107t11.5 -149v-293q0 -50 0.5 -84t2 -59t4 -44.5t7.5 -40.5h-191zM248 883q0 -45 21 -64.5t50 -19.5q31 0 62.5 20t48.5 55v189q-91 -50 -136.5 -90.5t-45.5 -89.5z" />
<glyph unicode="&#xab;" d="M64 704l448 512v-320l-256 -255l256 -257v-320l-448 512v128zM512 704l448 512v-320l-256 -255l256 -257v-320l-448 512v128z" />
<glyph unicode="&#xac;" horiz-adv-x="768" d="M128 640h512v-384h-128v192h-384v192z" />
<glyph unicode="&#xad;" horiz-adv-x="768" d="M128 640h512v-192h-512v192z" />
<glyph unicode="&#xae;" horiz-adv-x="1528" d="M242 696q0 -117 41 -219.5t111.5 -179t166 -120.5t203.5 -44t203.5 44t166 120.5t111.5 179t41 219.5q0 78 -18.5 150t-52.5 135t-81.5 114t-105.5 88t-125 57t-139 20t-139 -20t-125 -57t-105.5 -88t-81.5 -114t-52.5 -135t-18.5 -150zM70 700q0 99 25 190.5t70 171 t108.5 144.5t140.5 111.5t165.5 72t184.5 25.5t184.5 -25.5t165.5 -72t140.5 -111.5t108.5 -144.5t70 -171t25 -190.5t-25 -190t-70 -170.5t-108.5 -144.5t-140.5 -111.5t-165.5 -72t-184.5 -25.5t-184.5 25.5t-165.5 72t-140.5 111.5t-108.5 144.5t-70 170.5t-25 190z M881 248l-127 385h-82v-385h-156v919h240q79 0 131 -21.5t83 -59t43.5 -87t12.5 -106.5q0 -51 -11 -87.5t-29 -62.5t-40.5 -43.5t-44.5 -29.5v-2q0 -10 6 -33q7 -23 23 -69l44 -124l75 -194h-168zM672 729h33q39 0 69 4.5t50.5 21t31 50t10.5 92.5q0 78 -30 115t-93 37h-71 v-320z" />
<glyph unicode="&#xb0;" d="M512 1810q103 0 176 -33t119 -87t67.5 -122.5t21.5 -140.5t-21.5 -141.5t-67.5 -123.5t-119 -87t-176 -33t-176 33t-119 87t-67.5 123.5t-21.5 141.5t21 140.5t67.5 122.5t119 87t176.5 33zM512 1212q50 0 86.5 18.5t60 48.5t34.5 68.5t11 78.5t-11 78.5t-34.5 68.5 t-59.5 48.5t-87 18.5t-87 -18t-59.5 -48t-34.5 -68.5t-11 -78.5t11 -78.5t34.5 -69t60 -49t86.5 -18.5z" />
<glyph unicode="&#xb1;" horiz-adv-x="832" d="M128 192h576v-192h-576v192zM320 384v192h-192v192h192v192h192v-192h192v-192h-192v-192h-192z" />
<glyph unicode="&#xb2;" horiz-adv-x="640" d="M64 1216q0 48 13 94t43 82t79 58t121 22t121 -22t79 -58t43 -82t13 -94t-23 -98t-65 -110t-101 -134l-131 -170h320v-128h-512v128l192 256q36 48 60.5 85t39.5 67t21.5 55t6.5 49t-1 47t-7 41t-19 29t-37 11t-37 -11t-19 -29t-7 -41t-1 -47h-192z" />
<glyph unicode="&#xb3;" horiz-adv-x="768" d="M384 640q-72 0 -121 22t-79 58t-43 82t-13 94h192q0 -24 1 -47t7 -41t19 -29t37 -11t37 11t19 29t7 41t1 47t-2 47t-14 41t-38 29t-74 11v128q48 0 74 11t38 29t14 41t2 47t-1 47t-7 41t-19 29t-37 11t-37 -11t-19 -29t-7 -41t-1 -47h-192q0 48 13 94t43 82t79 58t121 22 t121 -22t79 -58t43 -82t13 -94q0 -36 -8.5 -63.5t-22 -47.5t-30.5 -34t-35 -23q-42 -21 -96 -24q54 -3 96 -24q18 -9 35 -23t30.5 -34t22 -47.5t8.5 -63.5q0 -48 -13 -94t-43 -82t-79 -58t-121 -22z" />
<glyph unicode="&#xb4;" horiz-adv-x="640" d="M256 1408h-128l128 384h256z" />
<glyph unicode="&#xb5;" d="M128 1280h256v-1013q0 -42 25.5 -66t62.5 -24q24 0 46.5 8.5t43.5 21.5q20 13 40 29l38 31v1013h256v-1280h-256v138q-24 -52 -67 -80t-85 -41q-49 -15 -104 -17v-256h-256v1536z" />
<glyph unicode="&#xb6;" horiz-adv-x="952" d="M382 876q-77 0 -143.5 21.5t-116 63t-78 102.5t-28.5 141q0 158 100.5 245t306.5 87h473v-1536h-178v876h-139v-876h-197v876z" />
<glyph unicode="&#xb7;" horiz-adv-x="384" d="M64 960h256v-256h-256v256z" />
<glyph unicode="&#xb8;" horiz-adv-x="576" d="M64 -384q72 0 121 1t79 7t43 19t13 37q0 12 -8.5 24t-22 23t-30.5 21.5t-35 19.5q-42 21 -96 40v192h128v-128q72 -20 128 -48q24 -12 47 -27t41 -33t29 -39t11 -45q0 -72 -34 -111t-94 -57t-142 -21t-178 -3v128z" />
<glyph unicode="&#xb9;" horiz-adv-x="512" d="M64 1344q48 24 86 47t68.5 46.5t55.5 48t46 50.5h64v-896h-192v576h-128v128z" />
<glyph unicode="&#xba;" horiz-adv-x="899" d="M-1 729q0 96 17 174t57.5 133.5t108 86t168.5 30.5q93 0 159.5 -31.5t109 -88t62 -134.5t19.5 -170v-319q0 -92 -19.5 -170t-62 -134.5t-109 -88t-159.5 -31.5q-101 0 -168.5 30t-108 85.5t-57.5 134t-17 174.5v319zM212 451q0 -87 9 -139.5t26 -80t41.5 -36.5t56.5 -9 q33 0 57.5 8.5t40.5 36t23.5 80t7.5 140.5v237q0 88 -7.5 140t-23.5 79.5t-40.5 36t-57.5 8.5q-32 0 -56.5 -8.5t-41.5 -36.5t-26 -80t-9 -139v-237z" />
<glyph unicode="&#xbb;" d="M960 576l-448 -512v320l256 257l-256 255v320l448 -512v-128zM512 576l-448 -512v320l256 257l-256 255v320l448 -512v-128z" />
<glyph unicode="&#xbc;" horiz-adv-x="1601" d="M64 1344q48 24 86 47t68.5 46.5t55.5 48t46 50.5h64v-896h-192v576h-128v128zM895 1792h257l-576 -1792h-256zM1216 257h-320v128l340 576h172v-576h128v-128h-128v-256h-192v256zM1216 385v256l-128 -256h128z" />
<glyph unicode="&#xbd;" horiz-adv-x="1600" d="M64 1344q48 24 86 47t68.5 46.5t55.5 48t46 50.5h64v-896h-192v576h-128v128zM895 1792h257l-576 -1792h-256zM1024 641q0 48 13 94t43 82t79 58t121 22t121 -22t79 -58t43 -82t13 -94t-23 -98t-65 -110t-101 -134l-131 -170h320v-128h-512v128l192 256q36 48 60.5 85 t39.5 67t21.5 55t6.5 49t-1 47t-7 41t-19 29t-37 11t-37 -11t-19 -29t-7 -41t-1 -47h-192z" />
<glyph unicode="&#xbe;" horiz-adv-x="1793" d="M384 640q-72 0 -121 22t-79 58t-43 82t-13 94h192q0 -24 1 -47t7 -41t19 -29t37 -11t37 11t19 29t7 41t1 47t-2 47t-14 41t-38 29t-74 11v128q48 0 74 11t38 29t14 41t2 47t-1 47t-7 41t-19 29t-37 11t-37 -11t-19 -29t-7 -41t-1 -47h-192q0 48 13 94t43 82t79 58t121 22 t121 -22t79 -58t43 -82t13 -94q0 -36 -8.5 -63.5t-22 -47.5t-30.5 -34t-35 -23q-42 -21 -96 -24q54 -3 96 -24q18 -9 35 -23t30.5 -34t22 -47.5t8.5 -63.5q0 -48 -13 -94t-43 -82t-79 -58t-121 -22zM1023 1792h257l-576 -1792h-256zM1344 257h-320v128l340 576h172v-576h128 v-128h-128v-256h-192v256zM1344 385v256l-128 -256h128z" />
<glyph unicode="&#xbf;" horiz-adv-x="891" d="M565 1029v-245q0 -1 -18.5 -24.5t-45.5 -61.5l-59 -85q-32 -48 -59.5 -98.5t-46 -99t-18.5 -87.5q0 -56 25 -91t87 -35q44 0 71.5 19t43 49.5t21 70t5.5 80.5h219v-25q0 -84 -21 -157.5t-65 -127.5t-112 -85t-162 -31q-99 0 -166.5 26.5t-108 73.5t-58 111.5t-17.5 139.5 q0 37 11.5 76.5t30.5 79t43 78t49 73.5q58 81 135 159v217h216zM564 1106h-221v223h221v-223z" />
<glyph unicode="&#xc0;" horiz-adv-x="1152" d="M416 448l-96 -448h-256l384 1792h256l384 -1792h-256l-96 448h-320zM704 640l-128 768l-128 -768h256zM384 2304h256l128 -384h-128z" />
<glyph unicode="&#xc1;" horiz-adv-x="1152" d="M416 448l-96 -448h-256l384 1792h256l384 -1792h-256l-96 448h-320zM704 640l-128 768l-128 -768h256zM512 1920h-128l128 384h256z" />
<glyph unicode="&#xc2;" horiz-adv-x="1152" d="M416 448l-96 -448h-256l384 1792h256l384 -1792h-256l-96 448h-320zM704 640l-128 768l-128 -768h256zM578 2176l-128 -256h-192l192 384h256l192 -384h-192z" />
<glyph unicode="&#xc3;" horiz-adv-x="1152" d="M416 448l-96 -448h-256l384 1792h256l384 -1792h-256l-96 448h-320zM704 640l-128 768l-128 -768h256zM443 2257q39 0 78.5 -13.5t76.5 -29.5l70 -30q32 -14 56 -13q23 0 37 15.5t14 53.5h153q1 -5 0 -27.5t-7 -53.5t-19 -65t-37.5 -63t-62.5 -48t-93 -19q-42 0 -83 14 q-42 14 -78 30l-68 30q-32 14 -55 13q-23 0 -35.5 -14.5t-12.5 -52.5h-153q-1 6 0 28.5t7 52.5t19 64t37.5 62.5t62.5 47t93 18.5z" />
<glyph unicode="&#xc4;" horiz-adv-x="1152" d="M416 448l-96 -448h-256l384 1792h256l384 -1792h-256l-96 448h-320zM704 640l-128 768l-128 -768h256zM256 2176h256v-256h-256v256zM640 2176h256v-256h-256v256z" />
<glyph unicode="&#xc5;" horiz-adv-x="1152" d="M416 448l-96 -448h-256l384 1792h256l384 -1792h-256l-96 448h-320zM704 640l-128 768l-128 -768h256zM576 2304q-34 0 -58.5 -11t-40 -29t-22.5 -41t-7 -47t7 -47t22 -41t39.5 -29t59.5 -11q34 0 58.5 11t40 29t22.5 41t7 47t-7 47t-22.5 41t-40 29t-58.5 11zM576 2432 q65 0 113.5 -22t80 -58t47 -82t15.5 -94t-15.5 -94t-47 -82t-80 -58t-113.5 -22t-113.5 22t-80 58t-47 82t-15.5 94t15.5 94t47 82t80 58t113.5 22z" />
<glyph unicode="&#xc6;" horiz-adv-x="1408" d="M1216 832h-320v-640h448v-192h-704v448h-320l-191 -448h-255l764 1792h706v-192h-448v-576h320v-192zM640 640v658l-247 -658h247z" />
<glyph unicode="&#xc7;" horiz-adv-x="1216" d="M1152 640v-64q0 -120 -26 -228t-86 -189t-158 -129t-242 -48t-242 49t-158 136.5t-86 208.5t-26 265v511q0 144 26 265t86 208t158 136t242 49q136 0 233.5 -43.5t159 -121.5t90.5 -187.5t29 -241.5h-256q0 96 -13 168t-43 120t-79 72t-121 24t-121 -24t-79 -72t-43 -120 t-13 -168v-640q0 -72 13 -141t43 -123t79 -87t121 -33t121 33t79 87t43 123t13 141v64h256zM512 -384q72 0 121 1t79 7t43 19t13 37q0 12 -8.5 24t-22 23t-30.5 21.5t-35 19.5q-42 21 -96 40v192h128v-128q72 -20 128 -48q24 -12 47 -27t41 -33t29 -39t11 -45 q0 -72 -34 -111t-94 -57t-142 -21t-178 -3v128z" />
<glyph unicode="&#xc8;" horiz-adv-x="960" d="M704 832h-320v-640h448v-192h-704v1792h704v-192h-448v-576h320v-192zM288 2304h256l128 -384h-128z" />
<glyph unicode="&#xc9;" horiz-adv-x="960" d="M704 832h-320v-640h448v-192h-704v1792h704v-192h-448v-576h320v-192zM416 1920h-128l128 384h256z" />
<glyph unicode="&#xca;" horiz-adv-x="960" d="M704 832h-320v-640h448v-192h-704v1792h704v-192h-448v-576h320v-192zM482 2176l-128 -256h-192l192 384h256l192 -384h-192z" />
<glyph unicode="&#xcb;" horiz-adv-x="960" d="M704 832h-320v-640h448v-192h-704v1792h704v-192h-448v-576h320v-192zM160 2304h256v-256h-256v256zM544 2304h256v-256h-256v256z" />
<glyph unicode="&#xcc;" horiz-adv-x="512" d="M128 1792h256v-1792h-256v1792zM65 2304h256l128 -384h-128z" />
<glyph unicode="&#xcd;" horiz-adv-x="512" d="M128 1792h256v-1792h-256v1792zM193 1920h-128l128 384h256z" />
<glyph unicode="&#xce;" horiz-adv-x="512" d="M128 1792h256v-1792h-256v1792zM259 2176l-128 -256h-192l192 384h256l192 -384h-192z" />
<glyph unicode="&#xcf;" horiz-adv-x="512" d="M128 1792h256v-1792h-256v1792zM-63 2304h256v-256h-256v256zM321 2304h256v-256h-256v256z" />
<glyph unicode="&#xd0;" horiz-adv-x="1152" d="M128 0v832h-64v192h64v768h384q144 0 242 -26t158 -86t86 -158t26 -242v-704q0 -144 -26 -252t-86 -180t-158.5 -108t-243.5 -36h-382zM512 192q96 0 148 25t76 79t28 139t4 205v576q0 96 -4 168t-28.5 120t-77.5 72t-151 24h-123v-576h64v-192h-64v-640h128z" />
<glyph unicode="&#xd1;" horiz-adv-x="1152" d="M842 0l-458 1192v-1192h-256v1792h192l448 -1108v1108h256v-1792h-182zM443 2257q39 0 78.5 -13.5t76.5 -29.5l70 -30q32 -14 56 -13q23 0 37 15.5t14 53.5h153q1 -5 0 -27.5t-7 -53.5t-19 -65t-37.5 -63t-62.5 -48t-93 -19q-42 0 -83 14q-42 14 -78 30l-68 30 q-32 14 -55 13q-23 0 -35.5 -14.5t-12.5 -52.5h-153q-1 6 0 28.5t7 52.5t19 64t37.5 62.5t62.5 47t93 18.5z" />
<glyph unicode="&#xd2;" horiz-adv-x="1280" d="M1152 576q0 -120 -25 -228t-84 -189t-157.5 -129t-245.5 -48q-100 0 -177 22t-133.5 61t-95.5 94t-62.5 121t-33.5 141t-10 155v640q0 80 10 155t33.5 141t62.5 121t95.5 94t133.5 61t177 22q147 0 245.5 -48t157.5 -129t84 -189t25 -228v-640zM384 512q0 -72 13 -131 t43 -101t79 -65t121 -23t121 23t79 65t43 101t13 131v768q0 72 -13 131t-43 101t-79 65t-121 23t-121 -23t-79 -65t-43 -101t-13 -131v-768zM448 2304h256l128 -384h-128z" />
<glyph unicode="&#xd3;" horiz-adv-x="1280" d="M1152 576q0 -120 -25 -228t-84 -189t-157.5 -129t-245.5 -48q-100 0 -177 22t-133.5 61t-95.5 94t-62.5 121t-33.5 141t-10 155v640q0 80 10 155t33.5 141t62.5 121t95.5 94t133.5 61t177 22q147 0 245.5 -48t157.5 -129t84 -189t25 -228v-640zM384 512q0 -72 13 -131 t43 -101t79 -65t121 -23t121 23t79 65t43 101t13 131v768q0 72 -13 131t-43 101t-79 65t-121 23t-121 -23t-79 -65t-43 -101t-13 -131v-768zM576 1920h-128l128 384h256z" />
<glyph unicode="&#xd4;" horiz-adv-x="1280" d="M1152 576q0 -120 -25 -228t-84 -189t-157.5 -129t-245.5 -48q-100 0 -177 22t-133.5 61t-95.5 94t-62.5 121t-33.5 141t-10 155v640q0 80 10 155t33.5 141t62.5 121t95.5 94t133.5 61t177 22q147 0 245.5 -48t157.5 -129t84 -189t25 -228v-640zM384 512q0 -72 13 -131 t43 -101t79 -65t121 -23t121 23t79 65t43 101t13 131v768q0 72 -13 131t-43 101t-79 65t-121 23t-121 -23t-79 -65t-43 -101t-13 -131v-768zM642 2176l-128 -256h-192l192 384h256l192 -384h-192z" />
<glyph unicode="&#xd5;" horiz-adv-x="1280" d="M1152 576q0 -120 -25 -228t-84 -189t-157.5 -129t-245.5 -48q-100 0 -177 22t-133.5 61t-95.5 94t-62.5 121t-33.5 141t-10 155v640q0 80 10 155t33.5 141t62.5 121t95.5 94t133.5 61t177 22q147 0 245.5 -48t157.5 -129t84 -189t25 -228v-640zM384 512q0 -72 13 -131 t43 -101t79 -65t121 -23t121 23t79 65t43 101t13 131v768q0 72 -13 131t-43 101t-79 65t-121 23t-121 -23t-79 -65t-43 -101t-13 -131v-768zM507 2257q39 0 78.5 -13.5t76.5 -29.5l70 -30q32 -14 56 -13q23 0 37 15.5t14 53.5h153q1 -5 0 -27.5t-7 -53.5t-19 -65t-37.5 -63 t-62.5 -48t-93 -19q-42 0 -83 14q-42 14 -78 30l-68 30q-32 14 -55 13q-23 0 -35.5 -14.5t-12.5 -52.5h-153q-1 6 0 28.5t7 52.5t19 64t37.5 62.5t62.5 47t93 18.5z" />
<glyph unicode="&#xd6;" horiz-adv-x="1280" d="M1152 576q0 -120 -25 -228t-84 -189t-157.5 -129t-245.5 -48q-100 0 -177 22t-133.5 61t-95.5 94t-62.5 121t-33.5 141t-10 155v640q0 80 10 155t33.5 141t62.5 121t95.5 94t133.5 61t177 22q147 0 245.5 -48t157.5 -129t84 -189t25 -228v-640zM384 512q0 -72 13 -131 t43 -101t79 -65t121 -23t121 23t79 65t43 101t13 131v768q0 72 -13 131t-43 101t-79 65t-121 23t-121 -23t-79 -65t-43 -101t-13 -131v-768zM320 2304h256v-256h-256v256zM704 2304h256v-256h-256v256z" />
<glyph unicode="&#xd7;" horiz-adv-x="768" d="M384 512l-192 -192l-128 128l192 192l-192 192l128 128l192 -192l192 192l128 -128l-192 -192l192 -192l-128 -128z" />
<glyph unicode="&#xd8;" horiz-adv-x="1280" d="M1152 576q0 -120 -25 -228t-84 -189t-157.5 -129t-245.5 -48q-89 0 -160 18l-32 -128h-128l43 172q-18 10 -34 21q-56 39 -95 94t-62.5 121t-33.5 141t-10 155v640q0 80 10 155t33.5 141t62.5 121t95.5 94t133.5 61t177 22q89 0 160 -18l32 128h128l-44 -175 q77 -45 127 -112q59 -81 84 -189t25 -228v-640zM384 512q0 -72 13 -131q10 -46 30 -81l320 1283q-45 17 -107 17q-72 0 -121 -23t-79 -65t-43 -101t-13 -131v-768zM640 192q72 0 121 23t79 65t43 101t13 131v768q0 72 -13 131q-10 45 -30 81l-321 -1283q45 -17 108 -17z" />
<glyph unicode="&#xd9;" horiz-adv-x="1280" d="M640 -19q-112 0 -193.5 26.5t-138.5 73t-92 110t-54.5 136.5t-26.5 153t-7 160v1152h256v-1152q0 -48 1 -100t8.5 -101.5t22.5 -94.5t43.5 -78.5t72.5 -53.5t108 -20t108 20t72.5 53.5t43.5 78.5t22.5 94.5t8.5 101.5t1 100v1152h256v-1152q0 -80 -7 -160t-26.5 -153 t-54.5 -136.5t-92 -110t-138.5 -73t-193.5 -26.5zM448 2304h256l128 -384h-128z" />
<glyph unicode="&#xda;" horiz-adv-x="1280" d="M640 -19q-112 0 -193.5 26.5t-138.5 73t-92 110t-54.5 136.5t-26.5 153t-7 160v1152h256v-1152q0 -48 1 -100t8.5 -101.5t22.5 -94.5t43.5 -78.5t72.5 -53.5t108 -20t108 20t72.5 53.5t43.5 78.5t22.5 94.5t8.5 101.5t1 100v1152h256v-1152q0 -80 -7 -160t-26.5 -153 t-54.5 -136.5t-92 -110t-138.5 -73t-193.5 -26.5zM576 1920h-128l128 384h256z" />
<glyph unicode="&#xdb;" horiz-adv-x="1280" d="M640 -19q-112 0 -193.5 26.5t-138.5 73t-92 110t-54.5 136.5t-26.5 153t-7 160v1152h256v-1152q0 -48 1 -100t8.5 -101.5t22.5 -94.5t43.5 -78.5t72.5 -53.5t108 -20t108 20t72.5 53.5t43.5 78.5t22.5 94.5t8.5 101.5t1 100v1152h256v-1152q0 -80 -7 -160t-26.5 -153 t-54.5 -136.5t-92 -110t-138.5 -73t-193.5 -26.5zM642 2176l-128 -256h-192l192 384h256l192 -384h-192z" />
<glyph unicode="&#xdc;" horiz-adv-x="1280" d="M640 -19q-112 0 -193.5 26.5t-138.5 73t-92 110t-54.5 136.5t-26.5 153t-7 160v1152h256v-1152q0 -48 1 -100t8.5 -101.5t22.5 -94.5t43.5 -78.5t72.5 -53.5t108 -20t108 20t72.5 53.5t43.5 78.5t22.5 94.5t8.5 101.5t1 100v1152h256v-1152q0 -80 -7 -160t-26.5 -153 t-54.5 -136.5t-92 -110t-138.5 -73t-193.5 -26.5zM320 2304h256v-256h-256v256zM704 2304h256v-256h-256v256z" />
<glyph unicode="&#xdd;" horiz-adv-x="1152" d="M448 0v576l-384 1216h256l256 -896l256 896h256l-384 -1216v-576h-256zM512 1920h-128l128 384h256z" />
<glyph unicode="&#xde;" horiz-adv-x="952" d="M324 1536v-255h180q103 0 179.5 -31t127 -89.5t75.5 -143t25 -191.5q0 -223 -118 -336.5t-336 -105.5h-131v-384h-254v1536h252zM369 601q64 0 115.5 8t88 32t56.5 68.5t20 118.5q0 64 -14 108t-44 71t-77 39t-113 12h-77v-457h45z" />
<glyph unicode="&#xdf;" horiz-adv-x="1152" d="M128 0v1354q0 123 33 209.5t87 141.5t123 80t141 25q96 0 166.5 -21t120.5 -57t81 -83t49 -99t24.5 -105t6.5 -101q0 -144 -51.5 -242.5t-167.5 -162.5q58 -16 109.5 -51t90 -88.5t61 -125.5t22.5 -162q0 -120 -26 -218t-86 -167t-158 -107t-242 -38v210q72 0 121 14 t79 50t43 98t13 158q0 147 -67.5 223.5t-188.5 76.5v212q48 0 85.5 23t62.5 65t38 101t13 131q0 61 -7.5 108.5t-26 80.5t-51 50t-82.5 17q-48 0 -79 -16.5t-49 -47.5t-25 -75.5t-7 -101.5v-1359h-256z" />
<glyph unicode="&#xe0;" d="M384 -18q-48 0 -94 25t-82 67t-58 96t-22 113q0 49 5 94t23 87.5t51.5 83.5t90.5 82.5t140.5 84.5t201.5 89v92q0 72 -11 111t-29 57t-41 21t-47 3t-47 -3t-41 -21t-29 -57t-11 -111h-256q1 91 28.5 165.5t77.5 127t120.5 81t157.5 28.5q103 0 175.5 -36t119 -93t68 -129 t21.5 -144v-576q0 -72 5 -131t11 -101q4 -25 8 -46.5t9 -41.5h-255l-34 192q-24 -48 -49 -87t-55 -66t-67 -42t-85 -15zM384 351q0 -48 11 -78.5t29 -48.5t41 -25t47 -7t47 14.5t41 32.5q11 10 20.5 21.5t19.5 25.5v354l-113 -77q-48 -34 -79.5 -67t-47.5 -67.5t-16 -77.5z M320 1792h256l128 -384h-128z" />
<glyph unicode="&#xe1;" d="M384 -18q-48 0 -94 25t-82 67t-58 96t-22 113q0 49 5 94t23 87.5t51.5 83.5t90.5 82.5t140.5 84.5t201.5 89v92q0 72 -11 111t-29 57t-41 21t-47 3t-47 -3t-41 -21t-29 -57t-11 -111h-256q1 91 28.5 165.5t77.5 127t120.5 81t157.5 28.5q103 0 175.5 -36t119 -93t68 -129 t21.5 -144v-576q0 -72 5 -131t11 -101q4 -25 8 -46.5t9 -41.5h-255l-34 192q-24 -48 -49 -87t-55 -66t-67 -42t-85 -15zM384 351q0 -48 11 -78.5t29 -48.5t41 -25t47 -7t47 14.5t41 32.5q11 10 20.5 21.5t19.5 25.5v354l-113 -77q-48 -34 -79.5 -67t-47.5 -67.5t-16 -77.5z M448 1408h-128l128 384h256z" />
<glyph unicode="&#xe2;" d="M384 -18q-48 0 -94 25t-82 67t-58 96t-22 113q0 49 5 94t23 87.5t51.5 83.5t90.5 82.5t140.5 84.5t201.5 89v92q0 72 -11 111t-29 57t-41 21t-47 3t-47 -3t-41 -21t-29 -57t-11 -111h-256q1 91 28.5 165.5t77.5 127t120.5 81t157.5 28.5q103 0 175.5 -36t119 -93t68 -129 t21.5 -144v-576q0 -72 5 -131t11 -101q4 -25 8 -46.5t9 -41.5h-255l-34 192q-24 -48 -49 -87t-55 -66t-67 -42t-85 -15zM384 351q0 -48 11 -78.5t29 -48.5t41 -25t47 -7t47 14.5t41 32.5q11 10 20.5 21.5t19.5 25.5v354l-113 -77q-48 -34 -79.5 -67t-47.5 -67.5t-16 -77.5z M514 1664l-128 -256h-192l192 384h256l192 -384h-192z" />
<glyph unicode="&#xe3;" d="M384 -18q-48 0 -94 25t-82 67t-58 96t-22 113q0 49 5 94t23 87.5t51.5 83.5t90.5 82.5t140.5 84.5t201.5 89v92q0 72 -11 111t-29 57t-41 21t-47 3t-47 -3t-41 -21t-29 -57t-11 -111h-256q1 91 28.5 165.5t77.5 127t120.5 81t157.5 28.5q103 0 175.5 -36t119 -93t68 -129 t21.5 -144v-576q0 -72 5 -131t11 -101q4 -25 8 -46.5t9 -41.5h-255l-34 192q-24 -48 -49 -87t-55 -66t-67 -42t-85 -15zM384 351q0 -48 11 -78.5t29 -48.5t41 -25t47 -7t47 14.5t41 32.5q11 10 20.5 21.5t19.5 25.5v354l-113 -77q-48 -34 -79.5 -67t-47.5 -67.5t-16 -77.5z M379 1745q39 0 78.5 -13.5t76.5 -29.5l70 -30q32 -14 56 -13q23 0 37 15.5t14 53.5h153q1 -5 0 -27.5t-7 -53.5t-19 -65t-37.5 -63t-62.5 -48t-93 -19q-42 0 -83 14q-42 14 -78 30l-68 30q-32 14 -55 13q-23 0 -35.5 -14.5t-12.5 -52.5h-153q-1 6 0 28.5t7 52.5t19 64 t37.5 62.5t62.5 47t93 18.5z" />
<glyph unicode="&#xe4;" d="M384 -18q-48 0 -94 25t-82 67t-58 96t-22 113q0 49 5 94t23 87.5t51.5 83.5t90.5 82.5t140.5 84.5t201.5 89v92q0 72 -11 111t-29 57t-41 21t-47 3t-47 -3t-41 -21t-29 -57t-11 -111h-256q1 91 28.5 165.5t77.5 127t120.5 81t157.5 28.5q103 0 175.5 -36t119 -93t68 -129 t21.5 -144v-576q0 -72 5 -131t11 -101q4 -25 8 -46.5t9 -41.5h-255l-34 192q-24 -48 -49 -87t-55 -66t-67 -42t-85 -15zM384 351q0 -48 11 -78.5t29 -48.5t41 -25t47 -7t47 14.5t41 32.5q11 10 20.5 21.5t19.5 25.5v354l-113 -77q-48 -34 -79.5 -67t-47.5 -67.5t-16 -77.5z M192 1792h256v-256h-256v256zM576 1792h256v-256h-256v256z" />
<glyph unicode="&#xe5;" d="M384 -18q-48 0 -94 25t-82 67t-58 96t-22 113q0 49 5 94t23 87.5t51.5 83.5t90.5 82.5t140.5 84.5t201.5 89v92q0 72 -11 111t-29 57t-41 21t-47 3t-47 -3t-41 -21t-29 -57t-11 -111h-256q1 91 28.5 165.5t77.5 127t120.5 81t157.5 28.5q103 0 175.5 -36t119 -93t68 -129 t21.5 -144v-576q0 -72 5 -131t11 -101q4 -25 8 -46.5t9 -41.5h-255l-34 192q-24 -48 -49 -87t-55 -66t-67 -42t-85 -15zM384 351q0 -48 11 -78.5t29 -48.5t41 -25t47 -7t47 14.5t41 32.5q11 10 20.5 21.5t19.5 25.5v354l-113 -77q-48 -34 -79.5 -67t-47.5 -67.5t-16 -77.5z M512 1792q-34 0 -58.5 -11t-40 -29t-22.5 -41t-7 -47t7 -47t22 -41t39.5 -29t59.5 -11q34 0 58.5 11t40 29t22.5 41t7 47t-7 47t-22.5 41t-40 29t-58.5 11zM512 1920q65 0 113.5 -22t80 -58t47 -82t15.5 -94t-15.5 -94t-47 -82t-80 -58t-113.5 -22t-113.5 22t-80 58t-47 82 t-15.5 94t15.5 94t47 82t80 58t113.5 22z" />
<glyph unicode="&#xe6;" horiz-adv-x="1536" d="M128 283q0 49 5.5 94t23 87.5t51 83.5t90.5 82.5t140.5 84.5t201.5 89v92q0 72 -11 111t-29 57t-41 21t-47 3t-47 -3t-41 -21t-29 -57t-11 -111h-256q1 91 28.5 165.5t77.5 127t120.5 81t157.5 28.5q70 0 118.5 -22t79 -48.5t44.5 -49.5t15 -26q1 3 14.5 26t43.5 49.5 t78 48.5t118 22q96 0 168 -30.5t120 -103t72 -193t24 -301.5v-30h-511v-178q1 -56 7 -105t19.5 -85.5t37.5 -58t63 -21.5q49 0 75 22t38 58t14 82t2 94h255q0 -240 -96 -353t-289 -113q-71 0 -119.5 22.5t-78.5 50.5q-35 32 -56 73q-88 -77 -175.5 -112t-166.5 -35 q-63 0 -117.5 21t-94.5 60t-63 95t-23 126zM384 351q0 -48 11 -78.5t29 -48.5t41 -25t47 -7q18 0 42 6t48 14.5t45.5 17.5t35.5 16q-21 72 -32 169t-12 224q-65 -42 -112.5 -76.5t-79.5 -67t-47.5 -67t-15.5 -77.5zM1023 1088q-39 0 -63 -21t-37.5 -55t-19.5 -76.5t-7 -85.5 v-82h255q0 48 -1.5 104t-13.5 104t-38 80t-75 32z" />
<glyph unicode="&#xe7;" horiz-adv-x="1027" d="M512 -18q-96 0 -162 31t-108.5 82.5t-65.5 119.5t-33.5 141t-12.5 146.5t-2 137.5t2 137.5t12.5 146.5t33.5 141t65.5 119.5t108.5 82.5t162 31q98 0 164.5 -25.5t109 -66.5t65.5 -93t33 -103.5t11 -98.5t1 -79h-256q0 16 -0.5 41t-3.5 53.5t-10.5 57.5t-22 52 t-36.5 37.5t-55 14.5q-48 0 -74 -34t-38 -94t-14 -142t-2 -178t2 -178t14 -142t38 -94t74 -34t74 22t38 58t14 82t2 94h256q0 -32 -2 -79t-13.5 -98.5t-35 -103.5t-66 -93t-108 -66.5t-159.5 -25.5zM384 -384q72 0 121 1t79 7t43 19t13 37q0 12 -8.5 24t-22 23t-30.5 21.5 t-35 19.5q-42 21 -96 40v192h128v-128q72 -20 128 -48q24 -12 47 -27t41 -33t29 -39t11 -45q0 -72 -34 -111t-94 -57t-142 -21t-178 -3v128z" />
<glyph unicode="&#xe8;" d="M511 -18q-96 0 -167.5 31.5t-119.5 109.5t-72 211t-24 336q0 181 24 301.5t72 193t120 103t168 30.5t168 -30.5t120 -103t72 -193t24 -301.5v-30h-512v-64q0 -72 2 -141t14 -123t38 -87t74 -33q49 0 75 22t38 58t14 82t2 94h255q0 -240 -96 -353t-289 -113zM512 1088 q-48 0 -74 -32t-38 -80t-14 -104t-2 -104h256q0 48 -1.5 104t-13.5 104t-38 80t-75 32zM320 1792h256l128 -384h-128z" />
<glyph unicode="&#xe9;" d="M511 -18q-96 0 -167.5 31.5t-119.5 109.5t-72 211t-24 336q0 181 24 301.5t72 193t120 103t168 30.5t168 -30.5t120 -103t72 -193t24 -301.5v-30h-512v-64q0 -72 2 -141t14 -123t38 -87t74 -33q49 0 75 22t38 58t14 82t2 94h255q0 -240 -96 -353t-289 -113zM512 1088 q-48 0 -74 -32t-38 -80t-14 -104t-2 -104h256q0 48 -1.5 104t-13.5 104t-38 80t-75 32zM448 1408h-128l128 384h256z" />
<glyph unicode="&#xea;" d="M511 -18q-96 0 -167.5 31.5t-119.5 109.5t-72 211t-24 336q0 181 24 301.5t72 193t120 103t168 30.5t168 -30.5t120 -103t72 -193t24 -301.5v-30h-512v-64q0 -72 2 -141t14 -123t38 -87t74 -33q49 0 75 22t38 58t14 82t2 94h255q0 -240 -96 -353t-289 -113zM512 1088 q-48 0 -74 -32t-38 -80t-14 -104t-2 -104h256q0 48 -1.5 104t-13.5 104t-38 80t-75 32zM514 1664l-128 -256h-192l192 384h256l192 -384h-192z" />
<glyph unicode="&#xeb;" d="M511 -18q-96 0 -167.5 31.5t-119.5 109.5t-72 211t-24 336q0 181 24 301.5t72 193t120 103t168 30.5t168 -30.5t120 -103t72 -193t24 -301.5v-30h-512v-64q0 -72 2 -141t14 -123t38 -87t74 -33q49 0 75 22t38 58t14 82t2 94h255q0 -240 -96 -353t-289 -113zM512 1088 q-48 0 -74 -32t-38 -80t-14 -104t-2 -104h256q0 48 -1.5 104t-13.5 104t-38 80t-75 32zM192 1792h256v-256h-256v256zM576 1792h256v-256h-256v256z" />
<glyph unicode="&#xec;" horiz-adv-x="384" d="M78 1135h221v-1135h-221v1135zM-3 1792h256l128 -384h-128z" />
<glyph unicode="&#xed;" horiz-adv-x="384" d="M78 1135h221v-1135h-221v1135zM125 1408h-128l128 384h256z" />
<glyph unicode="&#xee;" horiz-adv-x="384" d="M78 1135h221v-1135h-221v1135zM191 1664l-128 -256h-192l192 384h256l192 -384h-192z" />
<glyph unicode="&#xef;" horiz-adv-x="375" d="M78 1135h221v-1135h-221v1135zM-131 1792h256v-256h-256v256zM253 1792h256v-256h-256v256z" />
<glyph unicode="&#xf0;" horiz-adv-x="1152" d="M256 1472l320 74q-71 32 -166.5 43t-217.5 11v210q118 0 218.5 -9.5t183.5 -32t149.5 -61t116.5 -96.5l228 53v-128l-156 -36q47 -96 69.5 -228t22.5 -312v-384q0 -144 -34 -255t-94 -186t-142 -114t-178 -39q-132 0 -218.5 49t-137.5 136t-71 208t-20 265q0 143 24 264 t71.5 208.5t119.5 136.5t168 49q70 0 118.5 -22t78.5 -48.5t44 -49.5t15 -26q0 100 -17 171.5t-52 122.5l-443 -102v128zM768 978q-20 30 -48 55q-24 20 -60 37.5t-84 17.5q-192 0 -192 -384q0 -144 12 -242t36 -158t60 -86t84 -26t84 23t60 65t36 101t12 131v466z" />
<glyph unicode="&#xf1;" d="M128 1280h256v-138q64 58 115 90t90.5 46.5t69.5 17t53 2.5q42 0 76 -17.5t58 -46.5t37 -66.5t13 -76.5v-1091h-256v960q0 24 -1.5 47t-10.5 41t-28.5 29t-55.5 11q-49 0 -86.5 -22.5t-73.5 -52.5v-1013h-256v1280zM379 1745q39 0 78.5 -13.5t76.5 -29.5l70 -30 q32 -14 56 -13q23 0 37 15.5t14 53.5h153q1 -5 0 -27.5t-7 -53.5t-19 -65t-37.5 -63t-62.5 -48t-93 -19q-42 0 -83 14q-42 14 -78 30l-68 30q-32 14 -55 13q-23 0 -35.5 -14.5t-12.5 -52.5h-153q-1 6 0 28.5t7 52.5t19 64t37.5 62.5t62.5 47t93 18.5z" />
<glyph unicode="&#xf2;" d="M128 832q0 32 2 79t12.5 98.5t33.5 103.5t65.5 93t108.5 66.5t162 25.5t162 -25.5t108.5 -66.5t65.5 -93t33.5 -103.5t12.5 -98.5t2 -79v-384q0 -32 -2 -79t-12.5 -98.5t-33.5 -103.5t-65.5 -93t-108.5 -66.5t-162 -25.5t-162 25.5t-108.5 66.5t-65.5 93t-33.5 103.5 t-12.5 98.5t-2 79v384zM384 448q0 -48 2 -94t14 -82t38 -58t74 -22t74 22t38 58t14 82t2 94v384q0 48 -2 94t-14 82t-38 58t-74 22t-74 -22t-38 -58t-14 -82t-2 -94v-384zM320 1792h256l128 -384h-128z" />
<glyph unicode="&#xf3;" d="M128 832q0 32 2 79t12.5 98.5t33.5 103.5t65.5 93t108.5 66.5t162 25.5t162 -25.5t108.5 -66.5t65.5 -93t33.5 -103.5t12.5 -98.5t2 -79v-384q0 -32 -2 -79t-12.5 -98.5t-33.5 -103.5t-65.5 -93t-108.5 -66.5t-162 -25.5t-162 25.5t-108.5 66.5t-65.5 93t-33.5 103.5 t-12.5 98.5t-2 79v384zM384 448q0 -48 2 -94t14 -82t38 -58t74 -22t74 22t38 58t14 82t2 94v384q0 48 -2 94t-14 82t-38 58t-74 22t-74 -22t-38 -58t-14 -82t-2 -94v-384zM448 1408h-128l128 384h256z" />
<glyph unicode="&#xf4;" d="M128 832q0 32 2 79t12.5 98.5t33.5 103.5t65.5 93t108.5 66.5t162 25.5t162 -25.5t108.5 -66.5t65.5 -93t33.5 -103.5t12.5 -98.5t2 -79v-384q0 -32 -2 -79t-12.5 -98.5t-33.5 -103.5t-65.5 -93t-108.5 -66.5t-162 -25.5t-162 25.5t-108.5 66.5t-65.5 93t-33.5 103.5 t-12.5 98.5t-2 79v384zM384 448q0 -48 2 -94t14 -82t38 -58t74 -22t74 22t38 58t14 82t2 94v384q0 48 -2 94t-14 82t-38 58t-74 22t-74 -22t-38 -58t-14 -82t-2 -94v-384zM514 1664l-128 -256h-192l192 384h256l192 -384h-192z" />
<glyph unicode="&#xf5;" d="M128 832q0 32 2 79t12.5 98.5t33.5 103.5t65.5 93t108.5 66.5t162 25.5t162 -25.5t108.5 -66.5t65.5 -93t33.5 -103.5t12.5 -98.5t2 -79v-384q0 -32 -2 -79t-12.5 -98.5t-33.5 -103.5t-65.5 -93t-108.5 -66.5t-162 -25.5t-162 25.5t-108.5 66.5t-65.5 93t-33.5 103.5 t-12.5 98.5t-2 79v384zM384 448q0 -48 2 -94t14 -82t38 -58t74 -22t74 22t38 58t14 82t2 94v384q0 48 -2 94t-14 82t-38 58t-74 22t-74 -22t-38 -58t-14 -82t-2 -94v-384zM379 1745q39 0 78.5 -13.5t76.5 -29.5l70 -30q32 -14 56 -13q23 0 37 15.5t14 53.5h153q1 -5 0 -27.5 t-7 -53.5t-19 -65t-37.5 -63t-62.5 -48t-93 -19q-42 0 -83 14q-42 14 -78 30l-68 30q-32 14 -55 13q-23 0 -35.5 -14.5t-12.5 -52.5h-153q-1 6 0 28.5t7 52.5t19 64t37.5 62.5t62.5 47t93 18.5z" />
<glyph unicode="&#xf6;" d="M128 832q0 32 2 79t12.5 98.5t33.5 103.5t65.5 93t108.5 66.5t162 25.5t162 -25.5t108.5 -66.5t65.5 -93t33.5 -103.5t12.5 -98.5t2 -79v-384q0 -32 -2 -79t-12.5 -98.5t-33.5 -103.5t-65.5 -93t-108.5 -66.5t-162 -25.5t-162 25.5t-108.5 66.5t-65.5 93t-33.5 103.5 t-12.5 98.5t-2 79v384zM384 448q0 -48 2 -94t14 -82t38 -58t74 -22t74 22t38 58t14 82t2 94v384q0 48 -2 94t-14 82t-38 58t-74 22t-74 -22t-38 -58t-14 -82t-2 -94v-384zM192 1792h256v-256h-256v256zM576 1792h256v-256h-256v256z" />
<glyph unicode="&#xf7;" horiz-adv-x="640" d="M0 768h640v-192h-640v192zM192 1135h256v-256h-256v256zM192 489h256v-256h-256v256z" />
<glyph unicode="&#xf8;" d="M384 448q0 -48 2 -94v-8l236 669q-12 31 -36 51q-26 22 -74 22t-74 -22t-38 -58t-14 -82t-2 -94v-384zM128 832q0 32 2 79t12.5 98.5t33.5 103.5t65.5 93t108.5 66.5t162 25.5t162 -26q17 -6 33 -14l72 204h97l-92 -257q41 -41 64 -92q23 -52 33.5 -103.5t12.5 -98.5 t2 -79v-384q0 -32 -2 -79t-12.5 -98.5t-33.5 -103.5t-65.5 -93t-108.5 -66.5t-162 -25.5q-93 0 -158 24l-72 -202h-86l84 239q-21 14 -38 31q-43 41 -66 93t-33.5 103.5t-12.5 98.5t-2 79v384zM431 220q3 -3 7 -6q26 -22 74 -22t74 22t38 58t14 82t2 94v355z" />
<glyph unicode="&#xf9;" d="M896 0h-256v138q-65 -59 -115.5 -90.5t-90 -46t-69.5 -17t-53 -2.5q-42 0 -76 17.5t-58 46.5t-37 66.5t-13 76.5v1091h256v-1013q0 -42 25.5 -66t62.5 -24q24 0 46.5 8.5t43.5 21.5t40 29l38 31v1013h256v-1280zM320 1792h256l128 -384h-128z" />
<glyph unicode="&#xfa;" d="M896 0h-256v138q-65 -59 -115.5 -90.5t-90 -46t-69.5 -17t-53 -2.5q-42 0 -76 17.5t-58 46.5t-37 66.5t-13 76.5v1091h256v-1013q0 -42 25.5 -66t62.5 -24q24 0 46.5 8.5t43.5 21.5t40 29l38 31v1013h256v-1280zM448 1408h-128l128 384h256z" />
<glyph unicode="&#xfb;" d="M896 0h-256v138q-65 -59 -115.5 -90.5t-90 -46t-69.5 -17t-53 -2.5q-42 0 -76 17.5t-58 46.5t-37 66.5t-13 76.5v1091h256v-1013q0 -42 25.5 -66t62.5 -24q24 0 46.5 8.5t43.5 21.5t40 29l38 31v1013h256v-1280zM514 1664l-128 -256h-192l192 384h256l192 -384h-192z" />
<glyph unicode="&#xfc;" d="M896 0h-256v138q-65 -59 -115.5 -90.5t-90 -46t-69.5 -17t-53 -2.5q-42 0 -76 17.5t-58 46.5t-37 66.5t-13 76.5v1091h256v-1013q0 -42 25.5 -66t62.5 -24q24 0 46.5 8.5t43.5 21.5t40 29l38 31v1013h256v-1280zM192 1792h256v-256h-256v256zM576 1792h256v-256h-256v256 z" />
<glyph unicode="&#xfd;" horiz-adv-x="960" d="M481 384l31 192l128 704h256l-320 -1344q-17 -74 -53 -123.5t-92 -79t-131.5 -41.5t-171.5 -12v192q59 0 100.5 14t67.5 38.5t37.5 58t11.5 73.5q0 17 -1.5 35t-6.5 37l-273 1152h256l128 -704zM416 1408h-128l128 384h256z" />
<glyph unicode="&#xfe;" horiz-adv-x="838" d="M72 1518h219v-494q44 47 79 73t62.5 38.5t49 15t38.5 2.5q79 0 128 -37t76 -116t36.5 -203.5t9.5 -298.5q0 -51 -3 -109t-11.5 -115t-25 -109t-44 -92t-66.5 -63.5t-94 -23.5q-32 0 -64.5 10.5t-63 27.5t-58 39.5t-49.5 45.5v-449h-219v1858zM291 223q101 -59 155 -59 q34 0 54 26t30 82.5t12.5 145.5t2.5 215q0 74 -0.5 137.5t-9.5 110t-31 72.5t-64 26t-78 -18t-71 -39v-699z" />
<glyph unicode="&#xff;" horiz-adv-x="960" d="M481 384l31 192l128 704h256l-320 -1344q-17 -74 -53 -123.5t-92 -79t-131.5 -41.5t-171.5 -12v192q59 0 100.5 14t67.5 38.5t37.5 58t11.5 73.5q0 17 -1.5 35t-6.5 37l-273 1152h256l128 -704zM160 1792h256v-256h-256v256zM544 1792h256v-256h-256v256z" />
<glyph unicode="&#x131;" horiz-adv-x="384" d="M78 1135h221v-1135h-221v1135z" />
<glyph unicode="&#x152;" horiz-adv-x="1664" d="M1472 832h-320v-640h448v-192h-704v128q-21 -41 -56 -73q-30 -28 -79 -50.5t-121 -22.5q-100 0 -177 22t-133.5 61t-95.5 94t-62.5 121t-33.5 141t-10 155v640q0 80 10 155t33.5 141t62.5 121t95.5 94t133.5 61t177 22q72 0 121 -23t79 -50q35 -33 56 -73v128h704v-192 h-448v-576h320v-192zM384 512q0 -72 13 -131t43 -101t79 -65t121 -23t121 23t79 65t43 101t13 131v782q-1 69 -15 125.5t-44 96.5t-78.5 62t-118.5 22q-72 0 -121 -23t-79 -65t-43 -101t-13 -131v-768z" />
<glyph unicode="&#x153;" horiz-adv-x="1536" d="M128 832q0 32 2 79t12.5 98.5t33.5 103.5t65.5 93t108.5 66.5t162 25.5q72 0 121 -23t79 -50q35 -33 56 -73q21 40 56 73q30 27 79 50t122 23q96 0 167.5 -30.5t119.5 -103t72 -193t24 -301.5v-30h-512v-64q0 -72 2 -141t14 -123t38 -87t74 -33q49 0 75 22t38 58t13.5 82 t1.5 94h256q0 -240 -95.5 -353t-288.5 -113q-72 0 -121 22.5t-79 50.5q-35 32 -56 73q-21 -41 -56 -73q-30 -28 -79 -50.5t-121 -22.5q-96 0 -162 25.5t-108.5 66.5t-65.5 93t-33.5 103.5t-12.5 98.5t-2 79v384zM384 448q0 -48 2 -94t14 -82t38 -58t74 -22t74 22t38 58 t14 82t2 94v384q0 48 -2 94t-14 82t-38 58t-74 22t-74 -22t-38 -58t-14 -82t-2 -94v-384zM1025 1088q-48 0 -74 -32t-38.5 -80t-14.5 -104t-2 -104h256q0 48 -1.5 104t-13 104t-37.5 80t-75 32z" />
<glyph unicode="&#x178;" horiz-adv-x="1152" d="M448 0v576l-384 1216h256l256 -896l256 896h256l-384 -1216v-576h-256zM256 2304h256v-256h-256v256zM640 2304h256v-256h-256v256z" />
<glyph unicode="&#x2c6;" horiz-adv-x="768" d="M384 1664l-128 -256h-192l192 384h256l192 -384h-192z" />
<glyph unicode="&#x2da;" horiz-adv-x="640" d="M320 1792q-34 0 -58.5 -11t-40 -29t-22.5 -41t-7 -47t7 -47t22 -41t39.5 -29t59.5 -11q34 0 58.5 11t40 29t22.5 41t7 47t-7 47t-22.5 41t-40 29t-58.5 11zM320 1920q65 0 113.5 -22t80 -58t47 -82t15.5 -94t-15.5 -94t-47 -82t-80 -58t-113.5 -22t-113.5 22t-80 58 t-47 82t-15.5 94t15.5 94t47 82t80 58t113.5 22z" />
<glyph unicode="&#x2dc;" horiz-adv-x="960" d="M347 1745q39 0 78.5 -13.5t76.5 -29.5l70 -30q32 -14 56 -13q23 0 37 15.5t14 53.5h153q1 -5 0 -27.5t-7 -53.5t-19 -65t-37.5 -63t-62.5 -48t-93 -19q-42 0 -83 14q-42 14 -78 30l-68 30q-32 14 -55 13q-23 0 -35.5 -14.5t-12.5 -52.5h-153q-1 6 0 28.5t7 52.5t19 64 t37.5 62.5t62.5 47t93 18.5z" />
<glyph unicode="&#x2000;" horiz-adv-x="1216" />
<glyph unicode="&#x2001;" horiz-adv-x="2432" />
<glyph unicode="&#x2002;" horiz-adv-x="1216" />
<glyph unicode="&#x2003;" horiz-adv-x="2432" />
<glyph unicode="&#x2004;" horiz-adv-x="810" />
<glyph unicode="&#x2005;" horiz-adv-x="608" />
<glyph unicode="&#x2006;" horiz-adv-x="405" />
<glyph unicode="&#x2007;" horiz-adv-x="405" />
<glyph unicode="&#x2008;" horiz-adv-x="304" />
<glyph unicode="&#x2009;" horiz-adv-x="486" />
<glyph unicode="&#x200a;" horiz-adv-x="135" />
<glyph unicode="&#x2010;" horiz-adv-x="384" d="M0 640h384v-192h-384v192z" />
<glyph unicode="&#x2011;" horiz-adv-x="384" d="M0 640h384v-192h-384v192z" />
<glyph unicode="&#x2012;" horiz-adv-x="384" d="M0 640h384v-192h-384v192z" />
<glyph unicode="&#x2013;" d="M0 448v192h1024v-192h-1024z" />
<glyph unicode="&#x2014;" horiz-adv-x="2048" d="M0 448v192h2048v-192h-2048z" />
<glyph unicode="&#x2018;" horiz-adv-x="512" d="M384 1280h-256q0 144 3 242t21 158t57 86t111 26l64 -128q-48 0 -74 -13.5t-38 -33.5t-14 -42t-2 -39h128v-256z" />
<glyph unicode="&#x2019;" horiz-adv-x="512" d="M128 1792h256q0 -144 -3 -242t-21 -158t-57 -86t-111 -26l-64 128q48 0 74 13.5t38 33.5t14 42t2 39h-128v256z" />
<glyph unicode="&#x201a;" horiz-adv-x="384" d="M62 63h256l-64 -384h-128z" />
<glyph unicode="&#x201c;" horiz-adv-x="896" d="M384 1280h-256q0 144 3 242t21 158t57 86t111 26l64 -128q-48 0 -74 -13.5t-38 -33.5t-14 -42t-2 -39h128v-256zM768 1280h-256q0 144 3 242t21 158t57 86t111 26l64 -128q-48 0 -74 -13.5t-38 -33.5t-14 -42t-2 -39h128v-256z" />
<glyph unicode="&#x201d;" horiz-adv-x="896" d="M128 1792h256q0 -144 -3 -242t-21 -158t-57 -86t-111 -26l-64 128q48 0 74 13.5t38 33.5t14 42t2 39h-128v256zM512 1792h256q0 -144 -3 -242t-21 -158t-57 -86t-111 -26l-64 128q48 0 74 13.5t38 33.5t14 42t2 39h-128v256z" />
<glyph unicode="&#x201e;" horiz-adv-x="704" d="M62 64h256l-64 -384h-128zM385 64h256l-64 -384h-128z" />
<glyph unicode="&#x2026;" horiz-adv-x="1152" d="M832 256h256v-256h-256v256zM448 256h256v-256h-256v256zM64 256h256v-256h-256v256z" />
<glyph unicode="&#x202f;" horiz-adv-x="486" />
<glyph unicode="&#x2039;" horiz-adv-x="832" d="M64 768l640 448v-256l-448 -319l448 -321v-256l-640 448v256z" />
<glyph unicode="&#x203a;" horiz-adv-x="832" d="M768 512l-640 -448v256l448 321l-448 319v256l640 -448v-256z" />
<glyph unicode="&#x205f;" horiz-adv-x="608" />
<glyph unicode="&#x2074;" horiz-adv-x="768" d="M384 832h-320v128l340 576h172v-576h128v-128h-128v-256h-192v256zM384 960v256l-128 -256h128z" />
<glyph unicode="&#x20ac;" horiz-adv-x="971" d="M0 993h70q4 124 26 224t70 171t126 109.5t195 38.5q123 0 203 -41.5t127 -112t66 -164.5t20 -200h-250q0 97 -17.5 154.5t-42.5 88t-52.5 39.5t-48.5 9q-55 0 -88 -19t-51 -58t-24 -98.5t-7 -140.5h196v-166h-196v-153h196v-166h-194q4 -89 15.5 -147.5t32.5 -93 t52 -48.5t74 -14q10 0 26.5 1.5t34.5 10.5t36.5 29t33 57.5t24 95t9.5 142.5h247q0 -69 -6.5 -137.5t-23 -132t-46 -118t-75.5 -94.5t-111 -63t-153 -23q-89 0 -155 21.5t-112.5 58.5t-76.5 88.5t-47.5 110.5t-25 124.5t-9.5 131.5h-68v166h68v153h-68v166z" />
<glyph unicode="&#x2122;" horiz-adv-x="2204" d="M649 1518v-154h-164v-678h-170v678h-163v154h497zM1139 686h-103l-137 555v-555h-158v832h242l104 -453l107 453h242v-832h-160v555z" />
<glyph unicode="&#xe000;" horiz-adv-x="1280" d="M0 1280h1280v-1280h-1280v1280z" />
<glyph unicode="&#xfb01;" horiz-adv-x="1216" d="M192 1088h-128v192h128v49q0 43 0.5 89.5t8 90.5t24 84t49 70t83 47.5t125.5 17.5q36 0 70 -2.5t88 -9.5v-190q-18 2 -35 5q-14 2 -28.5 3.5t-22.5 1.5q-36 0 -57.5 -13t-32 -35t-13.5 -51t-3 -61v-96h192v-192h-192v-1088h-256v1088zM832 1280h256v-1280h-256v1280z M832 1728h256v-256h-256v256z" />
<glyph unicode="&#xfb02;" horiz-adv-x="1216" d="M192 1088h-128v192h128v49q0 43 0.5 89.5t8 90.5t24 84t49 70t83 47.5t125.5 17.5q36 0 70 -2.5t88 -9.5v-190q-18 2 -35 5q-14 2 -28.5 3.5t-22.5 1.5q-36 0 -57.5 -13t-32 -35t-13.5 -51t-3 -61v-96h192v-192h-192v-1088h-256v1088zM1088 0h-256v1792h256v-1792z" />
<glyph unicode="&#xfb03;" horiz-adv-x="1920" d="M1536 1280h256v-1280h-256v1280zM1536 1728h256v-256h-256v256zM896 1088h-128v192h128v49q0 43 0.5 89.5t8 90.5t24 84t49 70t83 47.5t125.5 17.5q36 0 70 -2.5t88 -9.5v-190q-18 2 -35 5q-14 2 -28.5 3.5t-22.5 1.5q-36 0 -57.5 -13t-32 -35t-13.5 -51t-3 -61v-96h192 v-192h-192v-1088h-256v1088zM192 1088h-128v192h128v49q0 43 0.5 89.5t8 90.5t24 84t49 70t83 47.5t125.5 17.5q36 0 70 -2.5t88 -9.5v-190q-18 2 -35 5q-14 2 -28.5 3.5t-22.5 1.5q-36 0 -57.5 -13t-32 -35t-13.5 -51t-3 -61v-96h192v-192h-192v-1088h-256v1088z" />
<glyph unicode="&#xfb04;" horiz-adv-x="1920" d="M1792 0h-256v1792h256v-1792zM896 1088h-128v192h128v49q0 43 0.5 89.5t8 90.5t24 84t49 70t83 47.5t125.5 17.5q36 0 70 -2.5t88 -9.5v-190q-18 2 -35 5q-14 2 -28.5 3.5t-22.5 1.5q-36 0 -57.5 -13t-32 -35t-13.5 -51t-3 -61v-96h192v-192h-192v-1088h-256v1088z M192 1088h-128v192h128v49q0 43 0.5 89.5t8 90.5t24 84t49 70t83 47.5t125.5 17.5q36 0 70 -2.5t88 -9.5v-190q-18 2 -35 5q-14 2 -28.5 3.5t-22.5 1.5q-36 0 -57.5 -13t-32 -35t-13.5 -51t-3 -61v-96h192v-192h-192v-1088h-256v1088z" />
</font>
</defs>
</svg>
